File Size739.7 MB (775,582,092 bytes)
DownloadGo4Up | Jheberg | MultiUp
  • ClickNupload
  • Fichier
  • Filerio
  • Free
  • Fufox
  • HugeFiles
  • Mightyupload
  • ToutBox
  • Turbobit
  • UpToBox
  • Uplea
  • UploadBaz
  • Uploadable
  • Uploaded
  • Uppit
  • Userscloud
| OpenLoad | UsersCloud
Sendspace: Part1, Part2, Part3
SolidFiles: Part1, Part2
HashesCRC32: 92A11099, MD5: 132A827881690D17299D961B86DF3DAF, SHA1: A48AE604D8C57B67BC5FA6C7B636A71DFDE4345C, SHA256: 640F7C81A3D49DA7D05CA2DF60EBE2829FD5094AAC80EA255CD5220FE930241C, ED2K: C8E3384F55686E0C24C16E52B6ECFADF
Screenshots
screenshotscreenshotscreenshotscreenshotscreenshot
Additional Info
General
Complete name                            : [NoobSubs] One-Punch Man 03 (1080p Blu-ray 8bit AAC).mp4
Format                                   : MPEG-4
Format profile                           : Base Media
Codec ID                                 : isom (isom/avc1)
File size                                : 740 MiB
Duration                                 : 24 min 21 s
Overall bit rate mode                    : Variable
Overall bit rate                         : 4 246 kb/s
Movie name                               : [NoobSubs] One-Punch Man 03 (1080p Blu-ray 8bit AAC)
Album                                    : One-Punch Man
Track name/Position                      : 3
Track name/Total                         : 12
Performer                                : Subs: [SallySubs]
Encoded date                             : UTC 2016-11-29 11:04:46
Tagged date                              : UTC 2016-11-30 02:34:57
replaygain_track_gain                    : +1.30 dB
replaygain_track_minmax                  : 103,179
replaygain_track_peak                    : 0.840000
replaygain_undo                          : 1,1

Video
ID                                       : 1
Format                                   : AVC
Format/Info                              : Advanced Video Codec
Format profile                           : High@L4
Format settings, CABAC                   : Yes
Format settings, ReFrames                : 4 frames
Codec ID                                 : avc1
Codec ID/Info                            : Advanced Video Coding
Duration                                 : 24 min 21 s
Bit rate                                 : 3 942 kb/s
Maximum bit rate                         : 20.6 Mb/s
Width                                    : 1 920 pixels
Height                                   : 1 080 pixels
Display aspect ratio                     : 16:9
Frame rate mode                          : Constant
Frame rate                               : 23.976 (24000/1001) FPS
Color space                              : YUV
Chroma subsampling                       : 4:2:0
Bit depth                                : 8 bits
Scan type                                : Progressive
Bits/(Pixel*Frame)                       : 0.079
Stream size                              : 687 MiB (93%)
Title                                    : 264@GPAC0.6.2-DEV-rev681-g32e98cd-master
Writing library                          : x264 core 148 r2721 72d53ab
Encoding settings                        : cabac=1 / ref=4 / deblock=1:1:1 / analyse=0x3:0x133 / me=umh / subme=10 / psy=1 / psy_rd=0.40:0.00 / mixed_ref=1 / me_range=24 / chroma_me=1 / trellis=2 / 8x8dct=1 / cqm=0 / deadzone=21,11 / fast_pskip=1 / chroma_qp_offset=-2 / threads=12 / lookahead_threads=2 / sliced_threads=0 / nr=0 / decimate=1 / interlaced=0 / bluray_compat=0 / constrained_intra=0 / bframes=7 / b_pyramid=2 / b_adapt=2 / b_bias=0 / direct=3 / weightb=1 / open_gop=0 / weightp=2 / keyint=250 / keyint_min=23 / scenecut=40 / intra_refresh=0 / rc_lookahead=60 / rc=crf / mbtree=1 / crf=17.3 / qcomp=0.60 / qpmin=0 / qpmax=69 / qpstep=4 / ip_ratio=1.40 / aq=1:1.40
Encoded date                             : UTC 2016-11-29 11:04:46
Tagged date                              : UTC 2016-11-29 11:04:53

Audio
ID                                       : 2
Format                                   : AAC
Format/Info                              : Advanced Audio Codec
Format profile                           : LC
Codec ID                                 : 40
Duration                                 : 24 min 21 s
Bit rate mode                            : Variable
Bit rate                                 : 300 kb/s
Maximum bit rate                         : 355 kb/s
Channel(s)                               : 2 channels
Channel positions                        : Front: L R
Sampling rate                            : 48.0 kHz
Frame rate                               : 46.875 FPS (1024 spf)
Compression mode                         : Lossy
Stream size                              : 52.2 MiB (7%)
Encoded date                             : UTC 2016-11-29 11:04:09
Tagged date                              : UTC 2016-11-29 11:04:53

Other Files in this Torrent
[NoobSubs] One-Punch Man 03 (1080p Blu-ray 8bit AAC).mp4
beta
Anime DDL+NZB mirror
Current Time: 07/12/2021 02:41



About/FAQs

Discord