File Size864.6 MB (906,597,349 bytes)
DownloadJheberg | MultiUp | OpenLoad | UsersCloud
Sendspace: Part1, Part2, Part3
SolidFiles: Part1, Part2
HashesCRC32: 7E164B4D, MD5: 31BE04A47DA087175DD60AF8EFAF4249, SHA1: 96119A8CF8745CB4298303190ACCDD5796C4AC14, SHA256: DD7E8D84674F07DD7635CF798D5B79F58DF0A89E35B8132E58ED0B390922F2F4, ED2K: F6FAA1DD909460173DA2CA9FAE4132D3
Screenshots
screenshotscreenshotscreenshotscreenshotscreenshot
Additional Info
General
Complete name                            : [NoobSubs] One-Punch Man 02 (1080p Blu-ray 8bit AAC).mp4
Format                                   : MPEG-4
Format profile                           : Base Media
Codec ID                                 : isom (isom/avc1)
File size                                : 865 MiB
Duration                                 : 24 min 21 s
Overall bit rate mode                    : Variable
Overall bit rate                         : 4 963 kb/s
Movie name                               : [NoobSubs] One-Punch Man 02 (1080p Blu-ray 8bit AAC)
Album                                    : One-Punch Man
Track name/Position                      : 2
Track name/Total                         : 12
Performer                                : Subs: [SallySubs]
Encoded date                             : UTC 2016-11-29 10:07:22
Tagged date                              : UTC 2016-11-30 02:33:19
replaygain_track_gain                    : +0.44 dB
replaygain_track_minmax                  : 104,182
replaygain_track_peak                    : 1.020000

Video
ID                                       : 1
Format                                   : AVC
Format/Info                              : Advanced Video Codec
Format profile                           : High@L4
Format settings, CABAC                   : Yes
Format settings, ReFrames                : 4 frames
Codec ID                                 : avc1
Codec ID/Info                            : Advanced Video Coding
Duration                                 : 24 min 21 s
Bit rate                                 : 4 666 kb/s
Maximum bit rate                         : 22.5 Mb/s
Width                                    : 1 920 pixels
Height                                   : 1 080 pixels
Display aspect ratio                     : 16:9
Frame rate mode                          : Constant
Frame rate                               : 23.976 (24000/1001) FPS
Color space                              : YUV
Chroma subsampling                       : 4:2:0
Bit depth                                : 8 bits
Scan type                                : Progressive
Bits/(Pixel*Frame)                       : 0.094
Stream size                              : 813 MiB (94%)
Title                                    : 264@GPAC0.6.2-DEV-rev681-g32e98cd-master
Writing library                          : x264 core 148 r2721 72d53ab
Encoding settings                        : cabac=1 / ref=4 / deblock=1:1:1 / analyse=0x3:0x133 / me=umh / subme=10 / psy=1 / psy_rd=0.40:0.00 / mixed_ref=1 / me_range=24 / chroma_me=1 / trellis=2 / 8x8dct=1 / cqm=0 / deadzone=21,11 / fast_pskip=1 / chroma_qp_offset=-2 / threads=12 / lookahead_threads=2 / sliced_threads=0 / nr=0 / decimate=1 / interlaced=0 / bluray_compat=0 / constrained_intra=0 / bframes=7 / b_pyramid=2 / b_adapt=2 / b_bias=0 / direct=3 / weightb=1 / open_gop=0 / weightp=2 / keyint=250 / keyint_min=23 / scenecut=40 / intra_refresh=0 / rc_lookahead=60 / rc=crf / mbtree=1 / crf=17.3 / qcomp=0.60 / qpmin=0 / qpmax=69 / qpstep=4 / ip_ratio=1.40 / aq=1:1.40
Encoded date                             : UTC 2016-11-29 10:07:22
Tagged date                              : UTC 2016-11-29 10:07:30

Audio
ID                                       : 2
Format                                   : AAC
Format/Info                              : Advanced Audio Codec
Format profile                           : LC
Codec ID                                 : 40
Duration                                 : 24 min 21 s
Bit rate mode                            : Variable
Bit rate                                 : 294 kb/s
Maximum bit rate                         : 358 kb/s
Channel(s)                               : 2 channels
Channel positions                        : Front: L R
Sampling rate                            : 48.0 kHz
Frame rate                               : 46.875 FPS (1024 spf)
Compression mode                         : Lossy
Stream size                              : 51.2 MiB (6%)
Encoded date                             : UTC 2016-11-29 10:06:46
Tagged date                              : UTC 2016-11-29 10:07:30

Other Files in this Torrent
[NoobSubs] One-Punch Man 02 (1080p Blu-ray 8bit AAC).mp4
beta
Anime DDL+NZB mirror
Current Time: 07/12/2021 03:09



About/FAQs

Discord