File Size1.610 GB (1,728,801,693 bytes)
DownloadJheberg: Part1, Part2
MultiUp: Part1
  • ClickNupload
  • Fichier
  • Filerio
  • Free
  • Fufox
  • HugeFiles
  • Mightyupload
  • ToutBox
  • Turbobit
  • UpToBox
  • Uplea
  • UploadBaz
  • Uploadable
  • Uploaded
  • Uppit
  • Userscloud
, Part2
  • ClickNupload
  • Fichier
  • Filerio
  • Free
  • Fufox
  • HugeFiles
  • Mightyupload
  • ToutBox
  • Turbobit
  • UpToBox
  • Uplea
  • UploadBaz
  • Uploadable
  • Uploaded
  • Uppit
  • Userscloud

Sendspace: Part1, Part2, Part3, Part4, Part5, Part6
SolidFiles: Part1, Part2, Part3, Part4
UsersCloud: Part1, Part2
HashesCRC32: 7B7715F1, MD5: 299730060A3D9207BD8BF17155EBE2DC, SHA1: 8505183C59BBE4CC4D4C824EA27E4CBD637D45C6, SHA256: 18D3702E73BE48ADB50720E7D505A17C88595595898FE36E2889EFF3B7C4AEA4, ED2K: 28553F9D0EF020AFAD28BE98EF632938
Screenshots
screenshotscreenshotscreenshotscreenshotscreenshot
SubtitlesAll Attachments | Español [spa, ASS], English Subtitles [eng, ASS], English Signs [eng, ASS]
Additional Info
General
Unique ID                                : 244820248328989935718360812714697028035 (0xB82EAA2B696E3EBC869FA9166BCDF1C3)
Complete name                            : [NF][OZC]Mobile Suit Gundam 0083 Stardust Memory BD Box E10 'Colliding Warzones' [1080p].mkv
Format                                   : Matroska
Format version                           : Version 4 / Version 2
File size                                : 1.61 GiB
Duration                                 : 25 min 31 s
Overall bit rate                         : 9 033 kb/s
Encoded date                             : UTC 2016-07-10 13:21:40
Writing application                      : mkvmerge v7.2.0 ('On Every Street') 64bit built on Sep 13 2014 15:52:10
Writing library                          : libebml v1.3.0 + libmatroska v1.4.1
Attachments                              : Batang.ttf / bertoltbrecht_2.ttf / BPreplay.ttf / BPreplayBold.ttf / BPreplayBoldItalics.ttf / BPreplayItalics.ttf / calibri_4.ttf / calibrii_4.ttf / orbitron-medium.ttf / Philosopher.ttf / rexlia free_1.ttf / SQRS711L.TTF / SQRS711M.TTF
TRACKSETEX                               : 115441282 . 4000000000 600000000 jpn Japanese Surround (2006 Mix) + Subs

Video
ID                                       : 1
Format                                   : AVC
Format/Info                              : Advanced Video Codec
Format profile                           : High@L5
Format settings, CABAC                   : Yes
Format settings, ReFrames                : 16 frames
Codec ID                                 : V_MPEG4/ISO/AVC
Duration                                 : 25 min 31 s
Bit rate                                 : 7 314 kb/s
Width                                    : 1 440 pixels
Height                                   : 1 080 pixels
Display aspect ratio                     : 4:3
Frame rate mode                          : Constant
Frame rate                               : 23.976 (24000/1001) FPS
Color space                              : YUV
Chroma subsampling                       : 4:2:0
Bit depth                                : 8 bits
Scan type                                : Progressive
Bits/(Pixel*Frame)                       : 0.196
Stream size                              : 1.30 GiB (81%)
Title                                    : Episode 10 - Colliding Warzones
Writing library                          : x264 core 148 r2638 7599210
Encoding settings                        : cabac=1 / ref=16 / deblock=1:0:0 / analyse=0x3:0x133 / me=umh / subme=10 / psy=1 / psy_rd=1.00:0.00 / mixed_ref=1 / me_range=32 / chroma_me=1 / trellis=2 / 8x8dct=1 / cqm=0 / deadzone=21,11 / fast_pskip=0 / chroma_qp_offset=-4 / threads=12 / lookahead_threads=3 / sliced_threads=0 / nr=0 / decimate=1 / interlaced=0 / bluray_compat=0 / constrained_intra=0 / bframes=12 / b_pyramid=2 / b_adapt=2 / b_bias=0 / direct=1 / weightb=1 / open_gop=0 / weightp=2 / keyint=240 / keyint_min=23 / scenecut=40 / intra_refresh=0 / rc_lookahead=60 / rc=crf / mbtree=1 / crf=19.5 / qcomp=0.80 / qpmin=0 / qpmax=69 / qpstep=4 / ip_ratio=1.40 / aq=3:1.00
Language                                 : Japanese
Default                                  : Yes
Forced                                   : No

Audio #1
ID                                       : 2
Format                                   : AAC
Format/Info                              : Advanced Audio Codec
Format profile                           : LC
Codec ID                                 : A_AAC
Duration                                 : 25 min 31 s
Bit rate                                 : 510 kb/s
Channel(s)                               : 6 channels
Channel positions                        : Front: L C R, Side: L R, LFE
Sampling rate                            : 48.0 kHz
Frame rate                               : 46.875 FPS (1024 spf)
Compression mode                         : Lossy
Stream size                              : 93.1 MiB (6%)
Title                                    : Japanese Surround 5.1ch AAC (1990 Sound Mix)
Language                                 : Japanese
Default                                  : Yes
Forced                                   : No

Audio #2
ID                                       : 3
Format                                   : AAC
Format/Info                              : Advanced Audio Codec
Format profile                           : LC
Codec ID                                 : A_AAC
Duration                                 : 25 min 31 s
Bit rate                                 : 500 kb/s
Channel(s)                               : 6 channels
Channel positions                        : Front: L C R, Side: L R, LFE
Sampling rate                            : 48.0 kHz
Frame rate                               : 46.875 FPS (1024 spf)
Compression mode                         : Lossy
Stream size                              : 91.3 MiB (6%)
Title                                    : English Surround 5.1ch AAC
Language                                 : English
Default                                  : No
Forced                                   : No

Audio #3
ID                                       : 4
Format                                   : AAC
Format/Info                              : Advanced Audio Codec
Format profile                           : LC
Codec ID                                 : A_AAC
Duration                                 : 25 min 31 s
Bit rate                                 : 172 kb/s
Channel(s)                               : 2 channels
Channel positions                        : Front: L R
Sampling rate                            : 48.0 kHz
Frame rate                               : 46.875 FPS (1024 spf)
Compression mode                         : Lossy
Delay relative to video                  : 9 ms
Stream size                              : 31.3 MiB (2%)
Title                                    : Japanese Stereo 2ch AAC (1990 Sound Mix)
Language                                 : Japanese
Default                                  : No
Forced                                   : No

Audio #4
ID                                       : 5
Format                                   : AAC
Format/Info                              : Advanced Audio Codec
Format profile                           : LC
Codec ID                                 : A_AAC
Duration                                 : 25 min 31 s
Bit rate                                 : 439 kb/s
Channel(s)                               : 6 channels
Channel positions                        : Front: L C R, Side: L R, LFE
Sampling rate                            : 48.0 kHz
Frame rate                               : 46.875 FPS (1024 spf)
Compression mode                         : Lossy
Delay relative to video                  : 9 ms
Stream size                              : 80.2 MiB (5%)
Title                                    : Japanese Surround 5.1ch AAC (2006 Sound Mix)
Language                                 : Japanese
Default                                  : No
Forced                                   : No

Text #1
ID                                       : 6
Format                                   : ASS
Codec ID                                 : S_TEXT/ASS
Codec ID/Info                            : Advanced Sub Station Alpha
Duration                                 : 25 min 18 s
Bit rate                                 : 95 b/s
Count of elements                        : 245
Compression mode                         : Lossless
Stream size                              : 17.7 KiB (0%)
Title                                    : Español
Language                                 : Spanish
Default                                  : Yes
Forced                                   : No

Text #2
ID                                       : 7
Format                                   : ASS
Codec ID                                 : S_TEXT/ASS
Codec ID/Info                            : Advanced Sub Station Alpha
Duration                                 : 25 min 21 s
Bit rate                                 : 103 b/s
Count of elements                        : 272
Compression mode                         : Lossless
Stream size                              : 19.2 KiB (0%)
Title                                    : English Subtitles
Language                                 : English
Default                                  : No
Forced                                   : No

Text #3
ID                                       : 8
Format                                   : ASS
Codec ID                                 : S_TEXT/ASS
Codec ID/Info                            : Advanced Sub Station Alpha
Duration                                 : 24 min 23 s
Bit rate                                 : 31 b/s
Count of elements                        : 46
Compression mode                         : Lossless
Stream size                              : 5.67 KiB (0%)
Title                                    : English Signs
Language                                 : English
Default                                  : No
Forced                                   : No

Menu
00:00:00.000                             : :Prologue
00:00:46.339                             : :Opening Credits
00:02:26.187                             : :Part A
00:10:12.445                             : :Part B
00:23:04.885                             : :Ending Credits
00:24:59.918                             : :Next Episode Preview

Other Files in this Torrent
[NF][OZC]Mobile Suit Gundam 0083 Stardust Memory BD Box E10 'Colliding Warzones' [1080p].mkv
beta
Anime DDL+NZB mirror
Current Time: 15/07/2024 05:20



About/FAQs

Discord