Mobile Suit Gundam 0083 - Cima's Special/[OZC]Mobile Suit Gundam 0083 Stardust Memory BD Box Short 2 'The Mayfly of Space 2' [1080p].mkv


File Size1.023 GB (1,098,636,168 bytes)
DownloadJheberg: Part1, Part2
MultiUp: Part1
  • ClickNupload
  • Fichier
  • Filerio
  • Free
  • Fufox
  • HugeFiles
  • Mightyupload
  • ToutBox
  • Turbobit
  • UpToBox
  • Uplea
  • UploadBaz
  • Uploadable
  • Uploaded
  • Uppit
  • Userscloud
, Part2
  • ClickNupload
  • Fichier
  • Filerio
  • Free
  • Fufox
  • HugeFiles
  • Mightyupload
  • ToutBox
  • Turbobit
  • UpToBox
  • Uplea
  • UploadBaz
  • Uploadable
  • Uploaded
  • Uppit
  • Userscloud

Sendspace: Part1, Part2, Part3, Part4
SolidFiles: Part1, Part2, Part3
UsersCloud: Part1, Part2
HashesCRC32: 6E63A8BD, MD5: 29563E1771116B0ABEB4479C3627BEBB, SHA1: DCAEC25179A01ED9952A8F1E09414D5B2C0D6E36, SHA256: 0E6D6D1A3F8C8F02730039D983D59B8009ECF3FD2C3FA150EFB7AE7965D596D0, ED2K: 637EE92412208AA06435FE93FD7D340E
Screenshots
screenshotscreenshotscreenshotscreenshotscreenshot
SubtitlesAll Attachments | Español [spa, ASS], Ingles [eng, ASS]
Additional Info
General
Unique ID                                : 250614163219259090845028056042422620372 (0xBC8A883A889B3163A5AA07A94EBB50D4)
Complete name                            : [OZC]Mobile Suit Gundam 0083 Stardust Memory BD Box Short 2 'The Mayfly of Space 2' [1080p].mkv
Format                                   : Matroska
Format version                           : Version 4 / Version 2
File size                                : 1.02 GiB
Duration                                 : 11 min 45 s
Overall bit rate                         : 12.5 Mb/s
Encoded date                             : UTC 2016-07-10 08:40:58
Writing application                      : mkvmerge v7.2.0 ('On Every Street') 64bit built on Sep 13 2014 15:52:10
Writing library                          : libebml v1.3.0 + libmatroska v1.4.1
Attachments                              : BPreplay.ttf / calibri_5.ttf / calibrii_5.ttf / Philosopher_0.ttf

Video
ID                                       : 1
Format                                   : AVC
Format/Info                              : Advanced Video Codec
Format profile                           : High@L4.1
Format settings, CABAC                   : Yes
Format settings, ReFrames                : 4 frames
Codec ID                                 : V_MPEG4/ISO/AVC
Duration                                 : 11 min 45 s
Bit rate                                 : 12.3 Mb/s
Width                                    : 1 920 pixels
Height                                   : 1 080 pixels
Display aspect ratio                     : 16:9
Frame rate mode                          : Constant
Frame rate                               : 23.976 (24000/1001) FPS
Color space                              : YUV
Chroma subsampling                       : 4:2:0
Bit depth                                : 8 bits
Scan type                                : Progressive
Bits/(Pixel*Frame)                       : 0.247
Stream size                              : 1.01 GiB (98%)
Title                                    : Mobile Suit Gundam 0083 - The Mayfly of Space 2
Writing library                          : x264 core 148 r2638 7599210
Encoding settings                        : cabac=1 / ref=4 / deblock=1:0:0 / analyse=0x3:0x133 / me=umh / subme=9 / psy=1 / psy_rd=0.80:0.15 / mixed_ref=1 / me_range=32 / chroma_me=1 / trellis=2 / 8x8dct=1 / cqm=0 / deadzone=21,11 / fast_pskip=0 / chroma_qp_offset=-4 / threads=4 / lookahead_threads=1 / sliced_threads=0 / nr=0 / decimate=1 / interlaced=0 / bluray_compat=0 / constrained_intra=0 / bframes=16 / b_pyramid=2 / b_adapt=2 / b_bias=0 / direct=3 / weightb=1 / open_gop=0 / weightp=2 / keyint=221 / keyint_min=21 / scenecut=40 / intra_refresh=0 / rc_lookahead=50 / rc=crf / mbtree=1 / crf=19.0 / qcomp=0.60 / qpmin=10 / qpmax=69 / qpstep=4 / ip_ratio=1.40 / aq=3:1.00
Language                                 : Japanese
Default                                  : Yes
Forced                                   : No

Audio
ID                                       : 2
Format                                   : AAC
Format/Info                              : Advanced Audio Codec
Format profile                           : LC
Codec ID                                 : A_AAC
Duration                                 : 11 min 45 s
Bit rate                                 : 171 kb/s
Channel(s)                               : 2 channels
Channel positions                        : Front: L R
Sampling rate                            : 48.0 kHz
Frame rate                               : 46.875 FPS (1024 spf)
Compression mode                         : Lossy
Delay relative to video                  : 9 ms
Stream size                              : 14.4 MiB (1%)
Title                                    : Japanese Stereo 2ch AAC
Language                                 : Japanese
Default                                  : Yes
Forced                                   : No

Text #1
ID                                       : 3
Format                                   : ASS
Codec ID                                 : S_TEXT/ASS
Codec ID/Info                            : Advanced Sub Station Alpha
Duration                                 : 11 min 20 s
Bit rate                                 : 86 b/s
Count of elements                        : 86
Compression mode                         : Lossless
Stream size                              : 7.22 KiB (0%)
Title                                    : Español
Language                                 : Spanish
Default                                  : Yes
Forced                                   : No

Text #2
ID                                       : 4
Format                                   : ASS
Codec ID                                 : S_TEXT/ASS
Codec ID/Info                            : Advanced Sub Station Alpha
Duration                                 : 11 min 20 s
Bit rate                                 : 86 b/s
Count of elements                        : 86
Compression mode                         : Lossless
Stream size                              : 7.16 KiB (0%)
Title                                    : Ingles
Language                                 : English
Default                                  : No
Forced                                   : No

Menu
00:00:00.000                             : :Opening Titles
00:01:45.049                             : :Part A
00:07:16.222                             : :Part B
00:10:54.900                             : :Ending Credits

Other Files in this Torrent
Mobile Suit Gundam 0083 - Cima's Special/[OZC]Mobile Suit Gundam 0083 Stardust Memory BD Box Short 2 'The Mayfly of Space 2' [1080p].mkv
beta
Anime DDL+NZB mirror
Current Time: 24/07/2024 03:04



About/FAQs

Discord