File Size1.791 GB (1,922,760,664 bytes)
DownloadJheberg: Part1, Part2
MultiUp: Part1
  • ClickNupload
  • Fichier
  • Filerio
  • Free
  • Fufox
  • HugeFiles
  • Mightyupload
  • ToutBox
  • Turbobit
  • UpToBox
  • Uplea
  • UploadBaz
  • Uploadable
  • Uploaded
  • Uppit
  • Userscloud
, Part2
  • ClickNupload
  • Fichier
  • Filerio
  • Free
  • Fufox
  • HugeFiles
  • Mightyupload
  • ToutBox
  • Turbobit
  • UpToBox
  • Uplea
  • UploadBaz
  • Uploadable
  • Uploaded
  • Uppit
  • Userscloud

Sendspace: Part1, Part2, Part3, Part4, Part5, Part6, Part7
SolidFiles: Part1, Part2, Part3, Part4
UsersCloud: Part1, Part2
HashesCRC32: 2EF4462B, MD5: 79F81DD11D85C26BB05D650874B0591C, SHA1: CF21FB5427C1DD1FD73B38568836C5BA2AF46795, SHA256: F00B1587F2F41B8F1FFF40C24A0D7606AC8556F24C5B3FDA6CC10080D09FD8C7, ED2K: 68569E780735160BA61156A1C48B9033
Screenshots
screenshotscreenshotscreenshotscreenshotscreenshot
SubtitlesAll Attachments | Español [spa, ASS], English Subtitles [eng, ASS], English Signs [eng, ASS]
Additional Info
General
Unique ID                                : 198805993853449802286279435005675415220 (0x9590A44464BE0FF2BE3F216D570FA6B4)
Complete name                            : [NF][OZC]Mobile Suit Gundam 0083 Stardust Memory BD Box E12 'Assault on the Point of No Return' [1080p].mkv
Format                                   : Matroska
Format version                           : Version 4 / Version 2
File size                                : 1.79 GiB
Duration                                 : 27 min 54 s
Overall bit rate                         : 9 186 kb/s
Encoded date                             : UTC 2016-07-10 13:36:57
Writing application                      : mkvmerge v7.2.0 ('On Every Street') 64bit built on Sep 13 2014 15:52:10
Writing library                          : libebml v1.3.0 + libmatroska v1.4.1
Attachments                              : Batang.ttf / bertoltbrecht_2.ttf / BPreplay.ttf / BPreplayBold.ttf / BPreplayBoldItalics.ttf / BPreplayItalics.ttf / calibri_4.ttf / calibrii_4.ttf / orbitron-medium.ttf / Philosopher.ttf / rexlia free_1.ttf / SQRS711L.TTF / SQRS711M.TTF
TRACKSETEX                               : 115441282 . 4000000000 600000000 jpn Japanese Surround (2006 Mix) + Subs

Video
ID                                       : 1
Format                                   : AVC
Format/Info                              : Advanced Video Codec
Format profile                           : High@L5
Format settings, CABAC                   : Yes
Format settings, ReFrames                : 16 frames
Codec ID                                 : V_MPEG4/ISO/AVC
Duration                                 : 27 min 54 s
Bit rate                                 : 7 468 kb/s
Width                                    : 1 440 pixels
Height                                   : 1 080 pixels
Display aspect ratio                     : 4:3
Frame rate mode                          : Constant
Frame rate                               : 23.976 (24000/1001) FPS
Color space                              : YUV
Chroma subsampling                       : 4:2:0
Bit depth                                : 8 bits
Scan type                                : Progressive
Bits/(Pixel*Frame)                       : 0.200
Stream size                              : 1.46 GiB (81%)
Title                                    : Episode 12 - Assault on the Point of No Return
Writing library                          : x264 core 148 r2638 7599210
Encoding settings                        : cabac=1 / ref=16 / deblock=1:0:0 / analyse=0x3:0x133 / me=umh / subme=10 / psy=1 / psy_rd=1.00:0.00 / mixed_ref=1 / me_range=32 / chroma_me=1 / trellis=2 / 8x8dct=1 / cqm=0 / deadzone=21,11 / fast_pskip=0 / chroma_qp_offset=-4 / threads=12 / lookahead_threads=3 / sliced_threads=0 / nr=0 / decimate=1 / interlaced=0 / bluray_compat=0 / constrained_intra=0 / bframes=12 / b_pyramid=2 / b_adapt=2 / b_bias=0 / direct=1 / weightb=1 / open_gop=0 / weightp=2 / keyint=240 / keyint_min=23 / scenecut=40 / intra_refresh=0 / rc_lookahead=60 / rc=crf / mbtree=1 / crf=19.5 / qcomp=0.80 / qpmin=0 / qpmax=69 / qpstep=4 / ip_ratio=1.40 / aq=3:1.00
Language                                 : Japanese
Default                                  : Yes
Forced                                   : No

Audio #1
ID                                       : 2
Format                                   : AAC
Format/Info                              : Advanced Audio Codec
Format profile                           : LC
Codec ID                                 : A_AAC
Duration                                 : 27 min 54 s
Bit rate                                 : 507 kb/s
Channel(s)                               : 6 channels
Channel positions                        : Front: L C R, Side: L R, LFE
Sampling rate                            : 48.0 kHz
Frame rate                               : 46.875 FPS (1024 spf)
Compression mode                         : Lossy
Stream size                              : 101 MiB (6%)
Title                                    : Japanese Surround 5.1ch AAC (1990 Sound Mix)
Language                                 : Japanese
Default                                  : Yes
Forced                                   : No

Audio #2
ID                                       : 3
Format                                   : AAC
Format/Info                              : Advanced Audio Codec
Format profile                           : LC
Codec ID                                 : A_AAC
Duration                                 : 27 min 54 s
Bit rate                                 : 498 kb/s
Channel(s)                               : 6 channels
Channel positions                        : Front: L C R, Side: L R, LFE
Sampling rate                            : 48.0 kHz
Frame rate                               : 46.875 FPS (1024 spf)
Compression mode                         : Lossy
Stream size                              : 99.4 MiB (5%)
Title                                    : English Surround 5.1ch AAC
Language                                 : English
Default                                  : No
Forced                                   : No

Audio #3
ID                                       : 4
Format                                   : AAC
Format/Info                              : Advanced Audio Codec
Format profile                           : LC
Codec ID                                 : A_AAC
Duration                                 : 27 min 54 s
Bit rate                                 : 179 kb/s
Channel(s)                               : 2 channels
Channel positions                        : Front: L R
Sampling rate                            : 48.0 kHz
Frame rate                               : 46.875 FPS (1024 spf)
Compression mode                         : Lossy
Delay relative to video                  : 9 ms
Stream size                              : 35.8 MiB (2%)
Title                                    : Japanese Stereo 2ch AAC (1990 Sound Mix)
Language                                 : Japanese
Default                                  : No
Forced                                   : No

Audio #4
ID                                       : 5
Format                                   : AAC
Format/Info                              : Advanced Audio Codec
Format profile                           : LC
Codec ID                                 : A_AAC
Duration                                 : 27 min 54 s
Bit rate                                 : 445 kb/s
Channel(s)                               : 6 channels
Channel positions                        : Front: L C R, Side: L R, LFE
Sampling rate                            : 48.0 kHz
Frame rate                               : 46.875 FPS (1024 spf)
Compression mode                         : Lossy
Delay relative to video                  : 9 ms
Stream size                              : 88.8 MiB (5%)
Title                                    : Japanese Surround 5.1ch AAC (2006 Sound Mix)
Language                                 : Japanese
Default                                  : No
Forced                                   : No

Text #1
ID                                       : 6
Format                                   : ASS
Codec ID                                 : S_TEXT/ASS
Codec ID/Info                            : Advanced Sub Station Alpha
Duration                                 : 27 min 48 s
Bit rate                                 : 80 b/s
Count of elements                        : 222
Compression mode                         : Lossless
Stream size                              : 16.5 KiB (0%)
Title                                    : Español
Language                                 : Spanish
Default                                  : Yes
Forced                                   : No

Text #2
ID                                       : 7
Format                                   : ASS
Codec ID                                 : S_TEXT/ASS
Codec ID/Info                            : Advanced Sub Station Alpha
Duration                                 : 27 min 51 s
Bit rate                                 : 88 b/s
Count of elements                        : 256
Compression mode                         : Lossless
Stream size                              : 18.2 KiB (0%)
Title                                    : English Subtitles
Language                                 : English
Default                                  : No
Forced                                   : No

Text #3
ID                                       : 8
Format                                   : ASS
Codec ID                                 : S_TEXT/ASS
Codec ID/Info                            : Advanced Sub Station Alpha
Duration                                 : 26 min 55 s
Bit rate                                 : 28 b/s
Count of elements                        : 46
Compression mode                         : Lossless
Stream size                              : 5.71 KiB (0%)
Title                                    : English Signs
Language                                 : English
Default                                  : No
Forced                                   : No

Menu
00:00:00.000                             : :Prologue
00:00:38.122                             : :Opening Credits
00:02:17.804                             : :Part A
00:13:43.281                             : :Part B
00:25:28.467                             : :Ending Credits
00:27:23.243                             : :Next Episode Preview

Other Files in this Torrent
[NF][OZC]Mobile Suit Gundam 0083 Stardust Memory BD Box E12 'Assault on the Point of No Return' [1080p].mkv
beta
Anime DDL+NZB mirror
Current Time: 24/07/2024 04:01



About/FAQs

Discord