File Size1.591 GB (1,707,869,118 bytes)
DownloadJheberg: Part1, Part2
MultiUp: Part1
  • ClickNupload
  • Fichier
  • Filerio
  • Free
  • Fufox
  • HugeFiles
  • Mightyupload
  • ToutBox
  • Turbobit
  • UpToBox
  • Uplea
  • UploadBaz
  • Uploadable
  • Uploaded
  • Uppit
  • Userscloud
, Part2
  • ClickNupload
  • Fichier
  • Filerio
  • Free
  • Fufox
  • HugeFiles
  • Mightyupload
  • ToutBox
  • Turbobit
  • UpToBox
  • Uplea
  • UploadBaz
  • Uploadable
  • Uploaded
  • Uppit
  • Userscloud

Sendspace: Part1, Part2, Part3, Part4, Part5, Part6
SolidFiles: Part1, Part2, Part3, Part4
UsersCloud: Part1, Part2
HashesCRC32: 7819BCC7, MD5: C17D0523C7095D466BE6EF9350E37927, SHA1: FF49067EFFDFF8C218AB5C936ECE58B1FF5F090A, SHA256: 05DBC8F5975C4EFCE3384B9601A4C18938E2BAB18678577D3B636B4209AA6D05, ED2K: F67323BBA5AEA2BC6D727008D6A3A12C
Screenshots
screenshotscreenshotscreenshotscreenshotscreenshot
SubtitlesAll Attachments | Español [spa, ASS], English Subtitles (1990 Sound Mix) [eng, ASS], English Subtitles (2006 Surround Mix) [eng, ASS], English Signs [eng, ASS]
Additional Info
General
Unique ID                                : 239519936256072919237550806395996032776 (0xB431DC9BBC308A1BA975A291254F4F08)
Complete name                            : [NF][OZC]Mobile Suit Gundam 0083 Stardust Memory BD Box E09 'The Nightmare of Solomon' [1080p].mkv
Format                                   : Matroska
Format version                           : Version 4 / Version 2
File size                                : 1.59 GiB
Duration                                 : 28 min 27 s
Overall bit rate                         : 8 004 kb/s
Encoded date                             : UTC 2016-07-10 13:11:57
Writing application                      : mkvmerge v7.2.0 ('On Every Street') 64bit built on Sep 13 2014 15:52:10
Writing library                          : libebml v1.3.0 + libmatroska v1.4.1
Attachments                              : Batang.ttf / bertoltbrecht_2.ttf / BPreplay.ttf / BPreplayBold.ttf / BPreplayBoldItalics.ttf / BPreplayItalics.ttf / calibri_4.ttf / calibrii_4.ttf / orbitron-medium.ttf / Philosopher.ttf / rexlia free_1.ttf / SQRS711L.TTF / SQRS711M.TTF
TRACKSETEX                               : 115441282 . 4000000000 700000000 jpn Japanese Surround (2006 Mix) + Subs

Video
ID                                       : 1
Format                                   : AVC
Format/Info                              : Advanced Video Codec
Format profile                           : High@L5
Format settings, CABAC                   : Yes
Format settings, ReFrames                : 16 frames
Codec ID                                 : V_MPEG4/ISO/AVC
Duration                                 : 28 min 26 s
Bit rate                                 : 6 287 kb/s
Width                                    : 1 440 pixels
Height                                   : 1 080 pixels
Display aspect ratio                     : 4:3
Frame rate mode                          : Constant
Frame rate                               : 23.976 (24000/1001) FPS
Color space                              : YUV
Chroma subsampling                       : 4:2:0
Bit depth                                : 8 bits
Scan type                                : Progressive
Bits/(Pixel*Frame)                       : 0.169
Stream size                              : 1.25 GiB (79%)
Title                                    : Episode 9 - The Nightmare of Solomon
Writing library                          : x264 core 148 r2638 7599210
Encoding settings                        : cabac=1 / ref=16 / deblock=1:0:0 / analyse=0x3:0x133 / me=umh / subme=10 / psy=1 / psy_rd=1.00:0.00 / mixed_ref=1 / me_range=32 / chroma_me=1 / trellis=2 / 8x8dct=1 / cqm=0 / deadzone=21,11 / fast_pskip=0 / chroma_qp_offset=-4 / threads=12 / lookahead_threads=3 / sliced_threads=0 / nr=0 / decimate=1 / interlaced=0 / bluray_compat=0 / constrained_intra=0 / bframes=12 / b_pyramid=2 / b_adapt=2 / b_bias=0 / direct=1 / weightb=1 / open_gop=0 / weightp=2 / keyint=240 / keyint_min=23 / scenecut=40 / intra_refresh=0 / rc_lookahead=60 / rc=crf / mbtree=1 / crf=19.5 / qcomp=0.80 / qpmin=0 / qpmax=69 / qpstep=4 / ip_ratio=1.40 / aq=3:1.00
Language                                 : Japanese
Default                                  : Yes
Forced                                   : No

Audio #1
ID                                       : 2
Format                                   : AAC
Format/Info                              : Advanced Audio Codec
Format profile                           : LC
Codec ID                                 : A_AAC
Duration                                 : 28 min 27 s
Bit rate                                 : 505 kb/s
Channel(s)                               : 6 channels
Channel positions                        : Front: L C R, Side: L R, LFE
Sampling rate                            : 48.0 kHz
Frame rate                               : 46.875 FPS (1024 spf)
Compression mode                         : Lossy
Stream size                              : 103 MiB (6%)
Title                                    : Japanese Surround 5.1ch AAC (1990 Sound Mix)
Language                                 : Japanese
Default                                  : Yes
Forced                                   : No

Audio #2
ID                                       : 3
Format                                   : AAC
Format/Info                              : Advanced Audio Codec
Format profile                           : LC
Codec ID                                 : A_AAC
Duration                                 : 28 min 27 s
Bit rate                                 : 498 kb/s
Channel(s)                               : 6 channels
Channel positions                        : Front: L C R, Side: L R, LFE
Sampling rate                            : 48.0 kHz
Frame rate                               : 46.875 FPS (1024 spf)
Compression mode                         : Lossy
Stream size                              : 101 MiB (6%)
Title                                    : English Surround 5.1ch AAC
Language                                 : English
Default                                  : No
Forced                                   : No

Audio #3
ID                                       : 4
Format                                   : AAC
Format/Info                              : Advanced Audio Codec
Format profile                           : LC
Codec ID                                 : A_AAC
Duration                                 : 28 min 26 s
Bit rate                                 : 178 kb/s
Channel(s)                               : 2 channels
Channel positions                        : Front: L R
Sampling rate                            : 48.0 kHz
Frame rate                               : 46.875 FPS (1024 spf)
Compression mode                         : Lossy
Delay relative to video                  : 9 ms
Stream size                              : 36.2 MiB (2%)
Title                                    : Japanese Stereo 2ch AAC (1990 Sound Mix)
Language                                 : Japanese
Default                                  : No
Forced                                   : No

Audio #4
ID                                       : 5
Format                                   : AAC
Format/Info                              : Advanced Audio Codec
Format profile                           : LC
Codec ID                                 : A_AAC
Duration                                 : 28 min 26 s
Bit rate                                 : 448 kb/s
Channel(s)                               : 6 channels
Channel positions                        : Front: L C R, Side: L R, LFE
Sampling rate                            : 48.0 kHz
Frame rate                               : 46.875 FPS (1024 spf)
Compression mode                         : Lossy
Delay relative to video                  : 9 ms
Stream size                              : 91.2 MiB (6%)
Title                                    : Japanese Surround 5.1ch AAC (2006 Sound Mix)
Language                                 : Japanese
Default                                  : No
Forced                                   : No

Text #1
ID                                       : 6
Format                                   : ASS
Codec ID                                 : S_TEXT/ASS
Codec ID/Info                            : Advanced Sub Station Alpha
Duration                                 : 28 min 20 s
Bit rate                                 : 102 b/s
Count of elements                        : 278
Compression mode                         : Lossless
Stream size                              : 21.3 KiB (0%)
Title                                    : Español
Language                                 : Spanish
Default                                  : Yes
Forced                                   : No

Text #2
ID                                       : 7
Format                                   : ASS
Codec ID                                 : S_TEXT/ASS
Codec ID/Info                            : Advanced Sub Station Alpha
Duration                                 : 28 min 23 s
Bit rate                                 : 107 b/s
Count of elements                        : 305
Compression mode                         : Lossless
Stream size                              : 22.4 KiB (0%)
Title                                    : English Subtitles (1990 Sound Mix)
Language                                 : English
Default                                  : No
Forced                                   : No

Text #3
ID                                       : 8
Format                                   : ASS
Codec ID                                 : S_TEXT/ASS
Codec ID/Info                            : Advanced Sub Station Alpha
Duration                                 : 28 min 22 s
Bit rate                                 : 107 b/s
Count of elements                        : 305
Compression mode                         : Lossless
Stream size                              : 22.4 KiB (0%)
Title                                    : English Subtitles (2006 Surround Mix)
Language                                 : English
Default                                  : No
Forced                                   : No

Text #4
ID                                       : 9
Format                                   : ASS
Codec ID                                 : S_TEXT/ASS
Codec ID/Info                            : Advanced Sub Station Alpha
Duration                                 : 28 min 22 s
Bit rate                                 : 33 b/s
Count of elements                        : 62
Compression mode                         : Lossless
Stream size                              : 7.05 KiB (0%)
Title                                    : English Signs
Language                                 : English
Default                                  : No
Forced                                   : No

Menu
00:00:00.000                             : :Prologue
00:00:35.868                             : :Opening Credits
00:02:15.638                             : :Part A
00:12:41.261                             : :Part B
00:26:00.809                             : :Ending Credits
00:27:55.841                             : :Next Episode Preview

Other Files in this Torrent
[NF][OZC]Mobile Suit Gundam 0083 Stardust Memory BD Box E09 'The Nightmare of Solomon' [1080p].mkv
beta
Anime DDL+NZB mirror
Current Time: 24/07/2024 03:47



About/FAQs

Discord