File Size2.004 GB (2,151,784,397 bytes)
DownloadJheberg: Part1, Part2, Part3
MultiUp: Part1
  • ClickNupload
  • Fichier
  • Filerio
  • Free
  • Fufox
  • HugeFiles
  • Mightyupload
  • ToutBox
  • Turbobit
  • UpToBox
  • Uplea
  • UploadBaz
  • Uploadable
  • Uploaded
  • Uppit
  • Userscloud
, Part2
  • ClickNupload
  • Fichier
  • Filerio
  • Free
  • Fufox
  • HugeFiles
  • Mightyupload
  • ToutBox
  • Turbobit
  • UpToBox
  • Uplea
  • UploadBaz
  • Uploadable
  • Uploaded
  • Uppit
  • Userscloud
, Part3
  • ClickNupload
  • Fichier
  • Filerio
  • Free
  • Fufox
  • HugeFiles
  • Mightyupload
  • ToutBox
  • Turbobit
  • UpToBox
  • Uplea
  • UploadBaz
  • Uploadable
  • Uploaded
  • Uppit
  • Userscloud

Sendspace: Part1, Part2, Part3, Part4, Part5, Part6, Part7
SolidFiles: Part1, Part2, Part3, Part4, Part5
UsersCloud: Part1, Part2, Part3
HashesCRC32: 3FE9D20B, MD5: CD42A865E2564A4B30ACC66AC1486640, SHA1: CCA78BFB33EC512BA943DB4B79A2B0C1A025BF7C, SHA256: EED9A4EFB6154C3C6698E33EEE9B34C8787172D12916DA8F5291D760E991DB83, ED2K: 4752DB8691E8B9EACF0B8ED130004FAD
Screenshots
screenshotscreenshotscreenshotscreenshotscreenshot
SubtitlesAll Attachments | EspaƱol [spa, ASS], English Subtitles [eng, ASS], English Signs [eng, ASS]
Additional Info
General
Unique ID                                : 202811263464144362378043805088841856527 (0x9894074E2A5C6A4A842C2A95CFADF60F)
Complete name                            : [NF][OZC]Mobile Suit Gundam 0083 Stardust Memory BD Box E13 'A Storm Raging Through' [1080p].mkv
Format                                   : Matroska
Format version                           : Version 4 / Version 2
File size                                : 2.00 GiB
Duration                                 : 29 min 32 s
Overall bit rate                         : 9 713 kb/s
Encoded date                             : UTC 2016-07-10 13:45:30
Writing application                      : mkvmerge v7.2.0 ('On Every Street') 64bit built on Sep 13 2014 15:52:10
Writing library                          : libebml v1.3.0 + libmatroska v1.4.1
Attachments                              : Batang.ttf / bertoltbrecht_2.ttf / BPreplay.ttf / BPreplayBold.ttf / BPreplayBoldItalics.ttf / BPreplayItalics.ttf / calibri_4.ttf / calibrii_4.ttf / orbitron-medium.ttf / Philosopher.ttf / rexlia free_1.ttf / SQRS711L.TTF / SQRS711M.TTF
TRACKSETEX                               : 115441282 . 4000000000 600000000 jpn Japanese Surround (2006 Mix) + Subs

Video
ID                                       : 1
Format                                   : AVC
Format/Info                              : Advanced Video Codec
Format profile                           : High@L5
Format settings, CABAC                   : Yes
Format settings, ReFrames                : 16 frames
Codec ID                                 : V_MPEG4/ISO/AVC
Duration                                 : 29 min 27 s
Bit rate                                 : 8 017 kb/s
Width                                    : 1 440 pixels
Height                                   : 1 080 pixels
Display aspect ratio                     : 4:3
Frame rate mode                          : Constant
Frame rate                               : 23.976 (24000/1001) FPS
Color space                              : YUV
Chroma subsampling                       : 4:2:0
Bit depth                                : 8 bits
Scan type                                : Progressive
Bits/(Pixel*Frame)                       : 0.215
Stream size                              : 1.65 GiB (82%)
Title                                    : Episode 13 - A Storm Raging Through
Writing library                          : x264 core 148 r2638 7599210
Encoding settings                        : cabac=1 / ref=16 / deblock=1:0:0 / analyse=0x3:0x133 / me=umh / subme=10 / psy=1 / psy_rd=1.00:0.00 / mixed_ref=1 / me_range=32 / chroma_me=1 / trellis=2 / 8x8dct=1 / cqm=0 / deadzone=21,11 / fast_pskip=0 / chroma_qp_offset=-4 / threads=12 / lookahead_threads=3 / sliced_threads=0 / nr=0 / decimate=1 / interlaced=0 / bluray_compat=0 / constrained_intra=0 / bframes=12 / b_pyramid=2 / b_adapt=2 / b_bias=0 / direct=1 / weightb=1 / open_gop=0 / weightp=2 / keyint=240 / keyint_min=23 / scenecut=40 / intra_refresh=0 / rc_lookahead=60 / rc=crf / mbtree=1 / crf=19.5 / qcomp=0.80 / qpmin=0 / qpmax=69 / qpstep=4 / ip_ratio=1.40 / aq=3:1.00
Language                                 : Japanese
Default                                  : Yes
Forced                                   : No

Audio #1
ID                                       : 2
Format                                   : AAC
Format/Info                              : Advanced Audio Codec
Format profile                           : LC
Codec ID                                 : A_AAC
Duration                                 : 29 min 32 s
Bit rate                                 : 505 kb/s
Channel(s)                               : 6 channels
Channel positions                        : Front: L C R, Side: L R, LFE
Sampling rate                            : 48.0 kHz
Frame rate                               : 46.875 FPS (1024 spf)
Compression mode                         : Lossy
Stream size                              : 107 MiB (5%)
Title                                    : Japanese Surround 5.1ch AAC (1990 Sound Mix)
Language                                 : Japanese
Default                                  : Yes
Forced                                   : No

Audio #2
ID                                       : 3
Format                                   : AAC
Format/Info                              : Advanced Audio Codec
Format profile                           : LC
Codec ID                                 : A_AAC
Duration                                 : 29 min 32 s
Bit rate                                 : 496 kb/s
Channel(s)                               : 6 channels
Channel positions                        : Front: L C R, Side: L R, LFE
Sampling rate                            : 48.0 kHz
Frame rate                               : 46.875 FPS (1024 spf)
Compression mode                         : Lossy
Stream size                              : 105 MiB (5%)
Title                                    : English Surround 5.1ch AAC
Language                                 : English
Default                                  : No
Forced                                   : No

Audio #3
ID                                       : 4
Format                                   : AAC
Format/Info                              : Advanced Audio Codec
Format profile                           : LC
Codec ID                                 : A_AAC
Duration                                 : 29 min 28 s
Bit rate                                 : 177 kb/s
Channel(s)                               : 2 channels
Channel positions                        : Front: L R
Sampling rate                            : 48.0 kHz
Frame rate                               : 46.875 FPS (1024 spf)
Compression mode                         : Lossy
Delay relative to video                  : 9 ms
Stream size                              : 37.2 MiB (2%)
Title                                    : Japanese Stereo 2ch AAC (1990 Sound Mix)
Language                                 : Japanese
Default                                  : No
Forced                                   : No

Audio #4
ID                                       : 5
Format                                   : AAC
Format/Info                              : Advanced Audio Codec
Format profile                           : LC
Codec ID                                 : A_AAC
Duration                                 : 29 min 28 s
Bit rate                                 : 455 kb/s
Channel(s)                               : 6 channels
Channel positions                        : Front: L C R, Side: L R, LFE
Sampling rate                            : 48.0 kHz
Frame rate                               : 46.875 FPS (1024 spf)
Compression mode                         : Lossy
Delay relative to video                  : 9 ms
Stream size                              : 95.9 MiB (5%)
Title                                    : Japanese Surround 5.1ch AAC (2006 Sound Mix)
Language                                 : Japanese
Default                                  : No
Forced                                   : No

Text #1
ID                                       : 6
Format                                   : ASS
Codec ID                                 : S_TEXT/ASS
Codec ID/Info                            : Advanced Sub Station Alpha
Duration                                 : 25 min 37 s
Bit rate                                 : 73 b/s
Count of elements                        : 188
Compression mode                         : Lossless
Stream size                              : 13.8 KiB (0%)
Title                                    : EspaƱol
Language                                 : Spanish
Default                                  : Yes
Forced                                   : No

Text #2
ID                                       : 7
Format                                   : ASS
Codec ID                                 : S_TEXT/ASS
Codec ID/Info                            : Advanced Sub Station Alpha
Duration                                 : 29 min 15 s
Bit rate                                 : 67 b/s
Count of elements                        : 206
Compression mode                         : Lossless
Stream size                              : 14.4 KiB (0%)
Title                                    : English Subtitles
Language                                 : English
Default                                  : No
Forced                                   : No

Text #3
ID                                       : 8
Format                                   : ASS
Codec ID                                 : S_TEXT/ASS
Codec ID/Info                            : Advanced Sub Station Alpha
Duration                                 : 29 min 15 s
Bit rate                                 : 17 b/s
Count of elements                        : 31
Compression mode                         : Lossless
Stream size                              : 3.76 KiB (0%)
Title                                    : English Signs
Language                                 : English
Default                                  : No
Forced                                   : No

Menu
00:00:00.000                             : :Part A
00:11:11.378                             : :Part B
00:23:36.668                             : :Epilogue
00:26:31.546                             : :Ending Credits

Other Files in this Torrent
[NF][OZC]Mobile Suit Gundam 0083 Stardust Memory BD Box E13 'A Storm Raging Through' [1080p].mkv
beta
Anime DDL+NZB mirror
Current Time: 24/07/2024 03:51



About/FAQs

Discord