File Size1.766 GB (1,896,209,515 bytes)
DownloadJheberg: Part1, Part2
MultiUp: Part1
  • ClickNupload
  • Fichier
  • Filerio
  • Free
  • Fufox
  • HugeFiles
  • Mightyupload
  • ToutBox
  • Turbobit
  • UpToBox
  • Uplea
  • UploadBaz
  • Uploadable
  • Uploaded
  • Uppit
  • Userscloud
, Part2
  • ClickNupload
  • Fichier
  • Filerio
  • Free
  • Fufox
  • HugeFiles
  • Mightyupload
  • ToutBox
  • Turbobit
  • UpToBox
  • Uplea
  • UploadBaz
  • Uploadable
  • Uploaded
  • Uppit
  • Userscloud

Sendspace: Part1, Part2, Part3, Part4, Part5, Part6, Part7
SolidFiles: Part1, Part2, Part3, Part4
UsersCloud: Part1, Part2
HashesCRC32: 889AA60B, MD5: 55E4EC8E11EBFF29C8B51DBF8172288A, SHA1: 55492A200F3909A29348F66131E9AE0D1F87CF98, SHA256: 20084A996F6FA7EECDEDFF252578A2B60093F7FF7F4E633F44E4DB77B1C2C502, ED2K: 0E29AEA0F3A0F24883DA809D39C631CF
Screenshots
screenshotscreenshotscreenshotscreenshotscreenshot
SubtitlesAll Attachments | Español [spa, ASS], English Subtitles [eng, ASS], English Signs [eng, ASS]
Additional Info
General
Unique ID                                : 237217836467018410181837891359334587468 (0xB2767E535BEC3C21AD27FBBFF175DC4C)
Complete name                            : [NF][OZC]Mobile Suit Gundam 0083 Stardust Memory BD Box E05 'Gundam, to the Sea of Stars!' [1080p].mkv
Format                                   : Matroska
Format version                           : Version 4 / Version 2
File size                                : 1.77 GiB
Duration                                 : 27 min 36 s
Overall bit rate                         : 9 160 kb/s
Encoded date                             : UTC 2016-07-10 11:59:30
Writing application                      : mkvmerge v7.2.0 ('On Every Street') 64bit built on Sep 13 2014 15:52:10
Writing library                          : libebml v1.3.0 + libmatroska v1.4.1
Attachments                              : Batang.ttf / bertoltbrecht_2.ttf / calibri_4.ttf / calibrii_4.ttf / orbitron-medium.ttf / rexlia free_1.ttf
TRACKSETEX                               : 115441282 . 4000000000 600000000 jpn Japanese Surround (2006 Mix) + Subs

Video
ID                                       : 1
Format                                   : AVC
Format/Info                              : Advanced Video Codec
Format profile                           : High@L5
Format settings, CABAC                   : Yes
Format settings, ReFrames                : 16 frames
Codec ID                                 : V_MPEG4/ISO/AVC
Duration                                 : 27 min 35 s
Bit rate                                 : 7 434 kb/s
Width                                    : 1 440 pixels
Height                                   : 1 080 pixels
Display aspect ratio                     : 4:3
Frame rate mode                          : Constant
Frame rate                               : 23.976 (24000/1001) FPS
Color space                              : YUV
Chroma subsampling                       : 4:2:0
Bit depth                                : 8 bits
Scan type                                : Progressive
Bits/(Pixel*Frame)                       : 0.199
Stream size                              : 1.43 GiB (81%)
Title                                    : Episode 5 - Gundam, to the Sea of Stars!
Writing library                          : x264 core 148 r2638 7599210
Encoding settings                        : cabac=1 / ref=16 / deblock=1:0:0 / analyse=0x3:0x133 / me=umh / subme=10 / psy=1 / psy_rd=1.00:0.00 / mixed_ref=1 / me_range=32 / chroma_me=1 / trellis=2 / 8x8dct=1 / cqm=0 / deadzone=21,11 / fast_pskip=0 / chroma_qp_offset=-4 / threads=12 / lookahead_threads=3 / sliced_threads=0 / nr=0 / decimate=1 / interlaced=0 / bluray_compat=0 / constrained_intra=0 / bframes=12 / b_pyramid=2 / b_adapt=2 / b_bias=0 / direct=1 / weightb=1 / open_gop=0 / weightp=2 / keyint=240 / keyint_min=23 / scenecut=40 / intra_refresh=0 / rc_lookahead=60 / rc=crf / mbtree=1 / crf=19.5 / qcomp=0.80 / qpmin=0 / qpmax=69 / qpstep=4 / ip_ratio=1.40 / aq=3:1.00
Language                                 : Japanese
Default                                  : Yes
Forced                                   : No

Audio #1
ID                                       : 2
Format                                   : AAC
Format/Info                              : Advanced Audio Codec
Format profile                           : LC
Codec ID                                 : A_AAC
Duration                                 : 27 min 36 s
Bit rate                                 : 501 kb/s
Channel(s)                               : 6 channels
Channel positions                        : Front: L C R, Side: L R, LFE
Sampling rate                            : 48.0 kHz
Frame rate                               : 46.875 FPS (1024 spf)
Compression mode                         : Lossy
Stream size                              : 98.8 MiB (5%)
Title                                    : Japanese Surround 5.1ch AAC (1990 Sound Mix)
Language                                 : Japanese
Default                                  : Yes
Forced                                   : No

Audio #2
ID                                       : 3
Format                                   : AAC
Format/Info                              : Advanced Audio Codec
Format profile                           : LC
Codec ID                                 : A_AAC
Duration                                 : 27 min 36 s
Bit rate                                 : 505 kb/s
Channel(s)                               : 6 channels
Channel positions                        : Front: L C R, Side: L R, LFE
Sampling rate                            : 48.0 kHz
Frame rate                               : 46.875 FPS (1024 spf)
Compression mode                         : Lossy
Stream size                              : 99.8 MiB (6%)
Title                                    : English Surround 5.1ch AAC
Language                                 : English
Default                                  : No
Forced                                   : No

Audio #3
ID                                       : 4
Format                                   : AAC
Format/Info                              : Advanced Audio Codec
Format profile                           : LC
Codec ID                                 : A_AAC
Duration                                 : 27 min 35 s
Bit rate                                 : 175 kb/s
Channel(s)                               : 2 channels
Channel positions                        : Front: L R
Sampling rate                            : 48.0 kHz
Frame rate                               : 46.875 FPS (1024 spf)
Compression mode                         : Lossy
Delay relative to video                  : 9 ms
Stream size                              : 34.6 MiB (2%)
Title                                    : Japanese Stereo 2ch AAC (1990 Sound Mix)
Language                                 : Japanese
Default                                  : No
Forced                                   : No

Audio #4
ID                                       : 5
Format                                   : AAC
Format/Info                              : Advanced Audio Codec
Format profile                           : LC
Codec ID                                 : A_AAC
Duration                                 : 27 min 35 s
Bit rate                                 : 456 kb/s
Channel(s)                               : 6 channels
Channel positions                        : Front: L C R, Side: L R, LFE
Sampling rate                            : 48.0 kHz
Frame rate                               : 46.875 FPS (1024 spf)
Compression mode                         : Lossy
Delay relative to video                  : 9 ms
Stream size                              : 90.0 MiB (5%)
Title                                    : Japanese Surround 5.1ch AAC (2006 Sound Mix)
Language                                 : Japanese
Default                                  : No
Forced                                   : No

Text #1
ID                                       : 6
Format                                   : ASS
Codec ID                                 : S_TEXT/ASS
Codec ID/Info                            : Advanced Sub Station Alpha
Duration                                 : 27 min 24 s
Bit rate                                 : 134 b/s
Count of elements                        : 372
Compression mode                         : Lossless
Stream size                              : 27.1 KiB (0%)
Title                                    : Español
Language                                 : Spanish
Default                                  : Yes
Forced                                   : No

Text #2
ID                                       : 7
Format                                   : ASS
Codec ID                                 : S_TEXT/ASS
Codec ID/Info                            : Advanced Sub Station Alpha
Duration                                 : 27 min 27 s
Bit rate                                 : 125 b/s
Count of elements                        : 389
Compression mode                         : Lossless
Stream size                              : 25.2 KiB (0%)
Title                                    : English Subtitles
Language                                 : English
Default                                  : No
Forced                                   : No

Text #3
ID                                       : 8
Format                                   : ASS
Codec ID                                 : S_TEXT/ASS
Codec ID/Info                            : Advanced Sub Station Alpha
Duration                                 : 26 min 38 s
Bit rate                                 : 21 b/s
Count of elements                        : 47
Compression mode                         : Lossless
Stream size                              : 4.11 KiB (0%)
Title                                    : English Signs
Language                                 : English
Default                                  : No
Forced                                   : No

Menu
00:00:00.000                             : :Prologue
00:00:33.575                             : :Opening Credits
00:02:28.857                             : :Part A
00:15:09.492                             : :Part B
00:25:10.118                             : :Ending Credits
00:27:04.900                             : :Next Episode Preview

Other Files in this Torrent
[NF][OZC]Mobile Suit Gundam 0083 Stardust Memory BD Box E05 'Gundam, to the Sea of Stars!' [1080p].mkv
beta
Anime DDL+NZB mirror
Current Time: 24/07/2024 03:35



About/FAQs

Discord