Mobile Suit Gundam 0083 - Cima's Special/[OZC]Mobile Suit Gundam 0083 Stardust Memory BD Box Short 1 'The Mayfly of Space' [1080p].mkv


File Size157.3 MB (164,909,460 bytes)
DownloadGo4Up | Jheberg | MultiUp
  • ClickNupload
  • Fichier
  • Filerio
  • Free
  • Fufox
  • HugeFiles
  • Mightyupload
  • ToutBox
  • Turbobit
  • UpToBox
  • Uplea
  • UploadBaz
  • Uploadable
  • Uploaded
  • Uppit
  • Userscloud
  • ZippyShare
| OpenLoad | Sendspace | SolidFiles | UsersCloud
HashesCRC32: CFAA1285, MD5: 192F49C801DF83337291F18C0F553582, SHA1: 5AADDA170D56C8B5C49059FD64F2A56016D25AF4, SHA256: CB9296460551B4A71C9401364AC8DA841B461C5D82A34C99EAA62EFE0B9B6BC1, ED2K: 2098A6812CE0C5B8AC684CA6D72FAEC8
Screenshots
screenshotscreenshotscreenshotscreenshot
SubtitlesAll Attachments | Español 1992 Stereo Mix [spa, ASS], Español 2006 Surround Mix [spa, ASS], English Subtitles (1992 Stereo Mix) [eng, ASS], English Subtitles (2006 Surround Mix) [eng, ASS]
Additional Info
General
Unique ID                                : 243331732966026623402195012051113099785 (0xB70FFCB22F6BA8F99C474EF5CDEC4209)
Complete name                            : [OZC]Mobile Suit Gundam 0083 Stardust Memory BD Box Short 1 'The Mayfly of Space' [1080p].mkv
Format                                   : Matroska
Format version                           : Version 4 / Version 2
File size                                : 157 MiB
Duration                                 : 3 min 52 s
Overall bit rate                         : 5 670 kb/s
Encoded date                             : UTC 2016-07-09 10:02:33
Writing application                      : mkvmerge v7.2.0 ('On Every Street') 64bit built on Sep 13 2014 15:52:10
Writing library                          : libebml v1.3.0 + libmatroska v1.4.1
Attachments                              : Batang.ttf / bertoltbrecht_2.ttf / calibri_4.ttf / calibrii_4.ttf / orbitron-medium.ttf / rexlia free_1.ttf
TRACKSETEX                               : 115441282 . 2000000000 400000000 jpn Japanese Surround (2006 Mix) + Subs

Video
ID                                       : 1
Format                                   : AVC
Format/Info                              : Advanced Video Codec
Format profile                           : High@L5
Format settings, CABAC                   : Yes
Format settings, ReFrames                : 16 frames
Codec ID                                 : V_MPEG4/ISO/AVC
Duration                                 : 3 min 52 s
Bit rate                                 : 4 502 kb/s
Width                                    : 1 440 pixels
Height                                   : 1 080 pixels
Display aspect ratio                     : 4:3
Frame rate mode                          : Constant
Frame rate                               : 23.976 (24000/1001) FPS
Color space                              : YUV
Chroma subsampling                       : 4:2:0
Bit depth                                : 8 bits
Scan type                                : Progressive
Bits/(Pixel*Frame)                       : 0.121
Stream size                              : 125 MiB (79%)
Title                                    : Mobile Suit Gundam 0083 - The Mayfly of Space
Writing library                          : x264 core 148 r2638 7599210
Encoding settings                        : cabac=1 / ref=16 / deblock=1:0:0 / analyse=0x3:0x133 / me=umh / subme=10 / psy=1 / psy_rd=1.00:0.00 / mixed_ref=1 / me_range=32 / chroma_me=1 / trellis=2 / 8x8dct=1 / cqm=0 / deadzone=21,11 / fast_pskip=0 / chroma_qp_offset=-4 / threads=12 / lookahead_threads=3 / sliced_threads=0 / nr=0 / decimate=1 / interlaced=0 / bluray_compat=0 / constrained_intra=0 / bframes=12 / b_pyramid=2 / b_adapt=2 / b_bias=0 / direct=1 / weightb=1 / open_gop=0 / weightp=2 / keyint=240 / keyint_min=23 / scenecut=40 / intra_refresh=0 / rc_lookahead=60 / rc=crf / mbtree=1 / crf=19.5 / qcomp=0.80 / qpmin=0 / qpmax=69 / qpstep=4 / ip_ratio=1.40 / aq=3:1.00
Language                                 : Japanese
Default                                  : Yes
Forced                                   : No

Audio #1
ID                                       : 2
Format                                   : AAC
Format/Info                              : Advanced Audio Codec
Format profile                           : LC
Codec ID                                 : A_AAC
Duration                                 : 3 min 52 s
Bit rate                                 : 163 kb/s
Channel(s)                               : 2 channels
Channel positions                        : Front: L R
Sampling rate                            : 48.0 kHz
Frame rate                               : 46.875 FPS (1024 spf)
Compression mode                         : Lossy
Stream size                              : 4.52 MiB (3%)
Title                                    : Japanese Stereo 2ch AAC (1992 Sound Mix)
Language                                 : Japanese
Default                                  : Yes
Forced                                   : No

Audio #2
ID                                       : 3
Format                                   : AAC
Format/Info                              : Advanced Audio Codec
Format profile                           : LC
Codec ID                                 : A_AAC
Duration                                 : 3 min 52 s
Bit rate                                 : 402 kb/s
Channel(s)                               : 6 channels
Channel positions                        : Front: L C R, Side: L R, LFE
Sampling rate                            : 48.0 kHz
Frame rate                               : 46.875 FPS (1024 spf)
Compression mode                         : Lossy
Stream size                              : 11.2 MiB (7%)
Title                                    : Japanese Surround 5.1ch AAC (2006 Sound Mix)
Language                                 : Japanese
Default                                  : No
Forced                                   : No

Text #1
ID                                       : 4
Format                                   : ASS
Codec ID                                 : S_TEXT/ASS
Codec ID/Info                            : Advanced Sub Station Alpha
Duration                                 : 2 min 10 s
Bit rate                                 : 70 b/s
Count of elements                        : 22
Compression mode                         : Lossless
Stream size                              : 1.12 KiB (0%)
Title                                    : Español 1992 Stereo Mix
Language                                 : Spanish
Default                                  : Yes
Forced                                   : No

Text #2
ID                                       : 5
Format                                   : ASS
Codec ID                                 : S_TEXT/ASS
Codec ID/Info                            : Advanced Sub Station Alpha
Duration                                 : 2 min 9 s
Bit rate                                 : 72 b/s
Count of elements                        : 23
Compression mode                         : Lossless
Stream size                              : 1.15 KiB (0%)
Title                                    : Español 2006 Surround Mix
Language                                 : Spanish
Default                                  : No
Forced                                   : No

Text #3
ID                                       : 6
Format                                   : ASS
Codec ID                                 : S_TEXT/ASS
Codec ID/Info                            : Advanced Sub Station Alpha
Duration                                 : 2 min 10 s
Bit rate                                 : 63 b/s
Count of elements                        : 22
Compression mode                         : Lossless
Stream size                              : 1.01 KiB (0%)
Title                                    : English Subtitles (1992 Stereo Mix)
Language                                 : English
Default                                  : No
Forced                                   : No

Text #4
ID                                       : 7
Format                                   : ASS
Codec ID                                 : S_TEXT/ASS
Codec ID/Info                            : Advanced Sub Station Alpha
Duration                                 : 2 min 9 s
Bit rate                                 : 65 b/s
Count of elements                        : 23
Compression mode                         : Lossless
Stream size                              : 1.04 KiB (0%)
Title                                    : English Subtitles (2006 Surround Mix)
Language                                 : English
Default                                  : No
Forced                                   : No

Menu
00:00:00.000                             : :Introduction
00:00:10.623                             : :The Mayfly of Space
00:03:18.534                             : :End Credits

Other Files in this Torrent
Mobile Suit Gundam 0083 - Cima's Special/[OZC]Mobile Suit Gundam 0083 Stardust Memory BD Box Short 1 'The Mayfly of Space' [1080p].mkv
beta
Anime DDL+NZB mirror
Current Time: 22/07/2024 11:54



About/FAQs

Discord