File Size73.29 MB (76,853,271 bytes)
DownloadClickNUpload | Jheberg | MultiUp
  • BdUpload
  • DownAce
  • Fichier
  • FileCloud
  • Filerio
  • FilesCdn
  • IndiShare
  • Kbagi
  • Turbobit
  • UpToBox
  • Uppit
| OpenLoad | Sendspace | SolidFiles | ZippyShare
HashesCRC32: 35B258B8, MD5: 5E2AC157F695566C02FC7835E87AEF89, SHA1: F73E94A4F3086B1FE4700C3C8088C40F7E7F9A71, SHA256: F222998AF161C2CE8F40687E38F0051B9063A8F6E985814023E5FC110A450566, ED2K: 0A127F4D37EA3DF16021124E8F52E969
Screenshots
screenshot
Additional Info
General
Unique ID                                : 60073697785136555002451669187972409583 (0x2D31C5F9D60AB7AC9BAFE97FE4BDA8EF)
Complete name                            : NCED - 02.mkv
Format                                   : Matroska
Format version                           : Version 4
File size                                : 73.3 MiB
Duration                                 : 1 min 19 s
Overall bit rate mode                    : Variable
Overall bit rate                         : 7 694 kb/s
Encoded date                             : UTC 2019-07-24 08:14:07
Writing application                      : mkvmerge v28.2.0 ('The Awakening') 64-bit
Writing library                          : libebml v1.3.6 + libmatroska v1.4.9

Video
ID                                       : 1
Format                                   : AVC
Format/Info                              : Advanced Video Codec
Format profile                           : High@L5
Format settings                          : CABAC / 5 Ref Frames
Format settings, CABAC                   : Yes
Format settings, ReFrames                : 5 frames
Codec ID                                 : V_MPEG4/ISO/AVC
Duration                                 : 1 min 19 s
Bit rate                                 : 6 801 kb/s
Width                                    : 1 920 pixels
Height                                   : 1 080 pixels
Display aspect ratio                     : 16:9
Frame rate mode                          : Constant
Frame rate                               : 23.976 (24000/1001) FPS
Color space                              : YUV
Chroma subsampling                       : 4:2:0
Bit depth                                : 8 bits
Scan type                                : Progressive
Bits/(Pixel*Frame)                       : 0.137
Stream size                              : 64.8 MiB (88%)
Writing library                          : x264 core 157 r2935 545de2f
Encoding settings                        : cabac=1 / ref=5 / deblock=1:1:1 / analyse=0x3:0x113 / me=umh / subme=9 / psy=1 / psy_rd=1.00:0.00 / mixed_ref=1 / me_range=32 / chroma_me=1 / trellis=1 / 8x8dct=1 / cqm=0 / deadzone=21,11 / fast_pskip=0 / chroma_qp_offset=-2 / threads=34 / lookahead_threads=2 / sliced_threads=0 / nr=0 / decimate=1 / interlaced=0 / bluray_compat=0 / stitchable=1 / constrained_intra=0 / bframes=3 / b_pyramid=2 / b_adapt=2 / b_bias=0 / direct=1 / weightb=1 / open_gop=0 / weightp=1 / keyint=240 / keyint_min=23 / scenecut=40 / intra_refresh=0 / rc_lookahead=40 / rc=crf / mbtree=1 / crf=16.0 / qcomp=0.65 / qpmin=0 / qpmax=69 / qpstep=4 / ip_ratio=1.40 / aq=1:1.00
Language                                 : Japanese
Default                                  : Yes
Forced                                   : No

Audio
ID                                       : 2
Format                                   : FLAC
Format/Info                              : Free Lossless Audio Codec
Codec ID                                 : A_FLAC
Duration                                 : 1 min 19 s
Bit rate mode                            : Variable
Bit rate                                 : 890 kb/s
Channel(s)                               : 2 channels
Channel layout                           : L R
Sampling rate                            : 48.0 kHz
Frame rate                               : 11.725 FPS (4094 SPF)
Bit depth                                : 16 bits
Compression mode                         : Lossless
Stream size                              : 8.48 MiB (12%)
Writing library                          : libFLAC 1.3.2 (UTC 2017-01-01)
Language                                 : Japanese
Default                                  : Yes
Forced                                   : No

Other Files in this Torrent
NC/NCED - 02.mkv
beta
Anime DDL+NZB mirror
Current Time: 12/07/2024 10:45



About/FAQs

Discord