[KH] Isekai Quartet - 10 - Join In! Rivals.mkv


File Size515.6 MB (540,609,138 bytes)
DownloadClickNUpload | Jheberg | OpenLoad
MultiUp: Part1
  • BdUpload
  • DownAce
  • Fichier
  • FileCloud
  • Filerio
  • FilesCdn
  • IndiShare
  • Kbagi
  • Turbobit
  • UpToBox
  • Uppit
, Part2
  • BdUpload
  • DownAce
  • Fichier
  • FileCloud
  • Filerio
  • FilesCdn
  • IndiShare
  • Kbagi
  • Turbobit
  • UpToBox
  • Uppit

Sendspace: Part1, Part2
SolidFiles: Part1, Part2
ZippyShare: Part1, Part2
HashesCRC32: FCC6A381, MD5: 7226681295B6BB16F1CAA34F75389215, SHA1: 3C8AE622468F951B11DF01FAF0EF39BB465DA968, SHA256: 2DB929A60DB056C62FE28957D155ADC16D8D78D540E3FD3548C88877FFDFCE5D, ED2K: DDB7600647BBFDA9688B9F2FF0E6867F
Screenshots
screenshotscreenshotscreenshotscreenshotscreenshot
SubtitlesAll Attachments | Signs / Songs [eng, ASS], Full Subs [No Honorifics] [eng, ASS], Full Subs [Honorifics] [eng, ASS]
Additional Info
General
Unique ID                                : 146598762169211379439231830361294095499 (0x6E49E503AA53E3946A144E503B71C48B)
Complete name                            : [KH] Isekai Quartet - 10 - Join In! Rivals.mkv
Format                                   : Matroska
Format version                           : Version 4
File size                                : 516 MiB
Duration                                 : 11 min 51 s
Overall bit rate mode                    : Variable
Overall bit rate                         : 6 082 kb/s
Encoded date                             : UTC 2019-08-08 13:32:21
Writing application                      : mkvmerge v35.0.0 ('All The Love In The World') 64-bit
Writing library                          : libebml v1.3.9 + libmatroska v1.5.2
Attachments                              : arial.ttf / ARLRDBD.TTF / BAARS.TTF / bahnschrift.ttf / BRADHITC.TTF / BRLNSR.TTF / CronosPro-Regular.otf / ERASBD.TTF / FantasticBoogaloo.ttf / Gloss_And_Bloom.ttf / ITCKRIST.TTF / lucon.TTF / MAGRA-BOLD.TTF

Video
ID                                       : 2
Format                                   : AVC
Format/Info                              : Advanced Video Codec
Format profile                           : High@L5
Format settings                          : CABAC / 5 Ref Frames
Format settings, CABAC                   : Yes
Format settings, ReFrames                : 5 frames
Codec ID                                 : V_MPEG4/ISO/AVC
Duration                                 : 11 min 51 s
Bit rate                                 : 5 114 kb/s
Width                                    : 1 920 pixels
Height                                   : 1 080 pixels
Display aspect ratio                     : 16:9
Frame rate mode                          : Constant
Frame rate                               : 23.976 (24000/1001) FPS
Color space                              : YUV
Chroma subsampling                       : 4:2:0
Bit depth                                : 8 bits
Scan type                                : Progressive
Bits/(Pixel*Frame)                       : 0.103
Stream size                              : 434 MiB (84%)
Writing library                          : x264 core 157 r2935 545de2f
Encoding settings                        : cabac=1 / ref=5 / deblock=1:1:1 / analyse=0x3:0x113 / me=umh / subme=9 / psy=1 / psy_rd=1.00:0.00 / mixed_ref=1 / me_range=32 / chroma_me=1 / trellis=1 / 8x8dct=1 / cqm=0 / deadzone=21,11 / fast_pskip=0 / chroma_qp_offset=-2 / threads=34 / lookahead_threads=2 / sliced_threads=0 / nr=0 / decimate=1 / interlaced=0 / bluray_compat=0 / stitchable=1 / constrained_intra=0 / bframes=3 / b_pyramid=2 / b_adapt=2 / b_bias=0 / direct=1 / weightb=1 / open_gop=0 / weightp=1 / keyint=240 / keyint_min=23 / scenecut=40 / intra_refresh=0 / rc_lookahead=40 / rc=crf / mbtree=1 / crf=16.0 / qcomp=0.65 / qpmin=0 / qpmax=69 / qpstep=4 / ip_ratio=1.40 / aq=1:1.00
Language                                 : Japanese
Default                                  : Yes
Forced                                   : No

Audio #1
ID                                       : 1
Format                                   : AAC LC
Format/Info                              : Advanced Audio Codec Low Complexity
Codec ID                                 : A_AAC-2
Duration                                 : 11 min 50 s
Bit rate                                 : 196 kb/s
Channel(s)                               : 2 channels
Channel layout                           : L R
Sampling rate                            : 48.0 kHz
Frame rate                               : 46.875 FPS (1024 SPF)
Compression mode                         : Lossy
Stream size                              : 16.6 MiB (3%)
Language                                 : English
Default                                  : Yes
Forced                                   : No

Audio #2
ID                                       : 3
Format                                   : FLAC
Format/Info                              : Free Lossless Audio Codec
Codec ID                                 : A_FLAC
Duration                                 : 11 min 51 s
Bit rate mode                            : Variable
Bit rate                                 : 734 kb/s
Channel(s)                               : 2 channels
Channel layout                           : L R
Sampling rate                            : 48.0 kHz
Frame rate                               : 11.719 FPS (4096 SPF)
Bit depth                                : 16 bits
Compression mode                         : Lossless
Stream size                              : 62.2 MiB (12%)
Writing library                          : libFLAC 1.3.2 (UTC 2017-01-01)
Language                                 : Japanese
Default                                  : No
Forced                                   : No

Text #1
ID                                       : 4
Format                                   : ASS
Codec ID                                 : S_TEXT/ASS
Codec ID/Info                            : Advanced Sub Station Alpha
Duration                                 : 10 min 54 s
Bit rate                                 : 1 001 b/s
Count of elements                        : 503
Compression mode                         : Lossless
Stream size                              : 80.0 KiB (0%)
Title                                    : Signs / Songs
Language                                 : English
Default                                  : Yes
Forced                                   : No

Text #2
ID                                       : 5
Format                                   : ASS
Codec ID                                 : S_TEXT/ASS
Codec ID/Info                            : Advanced Sub Station Alpha
Duration                                 : 11 min 49 s
Bit rate                                 : 1 097 b/s
Count of elements                        : 701
Compression mode                         : Lossless
Stream size                              : 95.0 KiB (0%)
Title                                    : Full Subs [No Honorifics]
Language                                 : English
Default                                  : No
Forced                                   : No

Text #3
ID                                       : 6
Format                                   : ASS
Codec ID                                 : S_TEXT/ASS
Codec ID/Info                            : Advanced Sub Station Alpha
Duration                                 : 11 min 49 s
Bit rate                                 : 1 097 b/s
Count of elements                        : 701
Compression mode                         : Lossless
Stream size                              : 95.1 KiB (0%)
Title                                    : Full Subs [Honorifics]
Language                                 : English
Default                                  : No
Forced                                   : No

Menu
00:00:00.033                             : en:Intro
00:00:55.490                             : en:OP
00:02:24.990                             : en:Episode
00:10:31.610                             : en:ED

Other Files in this Torrent
[KH] Isekai Quartet - 10 - Join In! Rivals.mkv
beta
Anime DDL+NZB mirror
Current Time: 12/07/2024 12:40



About/FAQs

Discord