File Size362.7 MB (380,354,926 bytes)
DownloadClickNUpload | DailyUploads | DownloadGG | GoFile | KrakenFiles | MdiaLoad | MultiUp
  • BdUpload
  • DownAce
  • Fichier
  • FileCloud
  • Filerio
  • FilesCdn
  • IndiShare
  • Kbagi
  • Turbobit
  • UpToBox
  • Uppit
| Uppit
HashesCRC32: E3AE216E, MD5: 2063897C86B792580790EA725D8DA957, SHA1: A47C27BF938A788713DCB264C48B1AC105C11049, SHA256: CAA8EA9810174A91D6922F3582013E417E54BEAC58E8488A790EC43A738E0CAD, ED2K: 4980F011E1E411ED9DB40F805E5A7C39
Screenshots
screenshotscreenshotscreenshotscreenshotscreenshot
SubtitlesAll Attachments | Chihiro Fansubs [eng, ASS], SubsPlease [eng, ASS]
Additional Info
General
Unique ID                                : 51056725522557328840161992702241363030 (0x26692AEB69DCC5F5819966833B6D5456)
Complete name                            : [mehsubs] Ayakashi Triangle - 12 [e3ae216e].mkv
Format                                   : Matroska
Format version                           : Version 4
File size                                : 363 MiB
Duration                                 : 23 min 41 s
Overall bit rate                         : 2 141 kb/s
Frame rate                               : 23.976 FPS
Encoded date                             : 2024-04-02 14:55:10 UTC
Writing application                      : mkvmerge v75.0.0 ('Goliath') 32-bit
Writing library                          : libebml v1.4.4 + libmatroska v1.7.1 / Lavf61.2.100
Attachments                              : arialbd.ttf / ArnoPro-Regular.otf / Artifika.ttf / grain.ttf / KozMinPro-Heavy.otf / MarkingPen Regular.ttf / Montara-Gothic-NEW.ttf / NeutonReg-2010.9.28-1.51.ttf / Nokia Standard Multiscript.TTF / Nunito-ExtraBold.ttf / OrangeBlossoms.ttf / Vogue (Bold).ttf / arial.ttf / arialbd.ttf / comic.ttf / comicbd.ttf / CONSOLA.TTF / CONSOLAB.TTF / Roboto-Medium.ttf / Roboto-MediumItalic.ttf / times.ttf / timesbd.ttf / trebuc.ttf / trebucbd.ttf / verdana.ttf / verdanab.ttf

Video
ID                                       : 1
Format                                   : AVC
Format/Info                              : Advanced Video Codec
Format profile                           : Main@L4
Format settings                          : CABAC / 4 Ref Frames
Format settings, CABAC                   : Yes
Format settings, Reference frames        : 4 frames
Codec ID                                 : V_MPEG4/ISO/AVC
Duration                                 : 23 min 41 s
Bit rate                                 : 1 901 kb/s
Width                                    : 1 920 pixels
Height                                   : 1 080 pixels
Display aspect ratio                     : 16:9
Frame rate mode                          : Constant
Frame rate                               : 23.976 (24000/1001) FPS
Color space                              : YUV
Chroma subsampling                       : 4:2:0
Bit depth                                : 8 bits
Scan type                                : Progressive
Bits/(Pixel*Frame)                       : 0.038
Stream size                              : 322 MiB (89%)
Writing library                          : x264 core 164 r3107 a8b68ebf
Encoding settings                        : cabac=1 / ref=2 / deblock=1:0:0 / analyse=0x1:0x111 / me=hex / subme=6 / psy=1 / psy_rd=1.00:0.00 / mixed_ref=1 / me_range=16 / chroma_me=1 / trellis=1 / 8x8dct=0 / cqm=0 / deadzone=21,11 / fast_pskip=1 / chroma_qp_offset=-2 / threads=24 / lookahead_threads=4 / sliced_threads=0 / nr=0 / decimate=1 / interlaced=0 / bluray_compat=0 / constrained_intra=0 / bframes=3 / b_pyramid=2 / b_adapt=1 / b_bias=0 / direct=1 / weightb=1 / open_gop=0 / weightp=1 / keyint=240 / keyint_min=24 / scenecut=40 / intra_refresh=0 / rc_lookahead=30 / rc=crf / mbtree=1 / crf=22.0 / qcomp=0.60 / qpmin=0 / qpmax=69 / qpstep=4 / vbv_maxrate=20000 / vbv_bufsize=25000 / crf_max=0.0 / nal_hrd=none / filler=0 / ip_ratio=1.40 / aq=1:1.00
Default                                  : Yes
Forced                                   : No
Color range                              : Limited
Color primaries                          : BT.709
Transfer characteristics                 : BT.709
Matrix coefficients                      : BT.709

Audio
ID                                       : 2
Format                                   : AC-3
Format/Info                              : Audio Coding 3
Commercial name                          : Dolby Digital
Codec ID                                 : A_AC3
Duration                                 : 23 min 41 s
Bit rate mode                            : Constant
Bit rate                                 : 160 kb/s
Channel(s)                               : 2 channels
Channel layout                           : L R
Sampling rate                            : 48.0 kHz
Frame rate                               : 31.250 FPS (1536 SPF)
Compression mode                         : Lossy
Delay relative to video                  : 6 ms
Stream size                              : 27.1 MiB (7%)
Title                                    : Stereo
Language                                 : Japanese
Service kind                             : Complete Main
Default                                  : Yes
Forced                                   : No

Text #1
ID                                       : 3
Format                                   : ASS
Codec ID                                 : S_TEXT/ASS
Codec ID/Info                            : Advanced Sub Station Alpha
Duration                                 : 23 min 36 s
Bit rate                                 : 3 961 b/s
Frame rate                               : 5.033 FPS
Count of elements                        : 7131
Compression mode                         : Lossless
Stream size                              : 685 KiB (0%)
Title                                    : Chihiro Fansubs
Language                                 : English
Default                                  : Yes
Forced                                   : No

Text #2
ID                                       : 4
Format                                   : ASS
Codec ID                                 : S_TEXT/ASS
Codec ID/Info                            : Advanced Sub Station Alpha
Duration                                 : 23 min 36 s
Bit rate                                 : 225 b/s
Frame rate                               : 0.364 FPS
Count of elements                        : 516
Compression mode                         : Lossless
Stream size                              : 39.1 KiB (0%)
Title                                    : SubsPlease
Language                                 : English
Default                                  : No
Forced                                   : No

Menu
00:00:00.000                             : Prologue
00:01:06.984                             : Opening
00:02:37.032                             : Ayakashi Triangle 12
00:22:09.997                             : Ending

Other Files in this Torrent
[mehsubs] Ayakashi Triangle - 12 [e3ae216e].mkv
beta
Anime DDL+NZB mirror
Current Time: 24/05/2024 22:46



About/FAQs

Discord