File Size370.0 MB (387,924,693 bytes)
DownloadClickNUpload | DailyUploads | DownloadGG | GoFile | KrakenFiles | MdiaLoad | MultiUp
  • BdUpload
  • DownAce
  • Fichier
  • FileCloud
  • Filerio
  • FilesCdn
  • IndiShare
  • Kbagi
  • Turbobit
  • UpToBox
  • Uppit
| Uppit
HashesCRC32: 0B56AD2A, MD5: 404E9FBE879F384591D9DB445BA99970, SHA1: EB32DE3AB24DD5BD83FBEBB5E7CD791CB46048BB, SHA256: 7BB472720C833E4FD23612E0F299EA2F6DCB460C0C841850D295A482275D24DE, ED2K: 08F4784128E44EC046078985241CC8D4
Screenshots
screenshotscreenshotscreenshotscreenshotscreenshot
SubtitlesAll Attachments | Chihiro Fansubs [eng, ASS], SubsPlease [eng, ASS]
Additional Info
General
Unique ID                                : 10134300030131777222242954159097212939 (0x79FCB91876091FF89D093FCAD09700B)
Complete name                            : [mehsubs] Ayakashi Triangle - 02 [0b56ad2a].mkv
Format                                   : Matroska
Format version                           : Version 4
File size                                : 370 MiB
Duration                                 : 23 min 41 s
Overall bit rate                         : 2 184 kb/s
Frame rate                               : 23.976 FPS
Encoded date                             : 2024-01-02 22:03:33 UTC
Writing application                      : mkvmerge v75.0.0 ('Goliath') 32-bit
Writing library                          : libebml v1.4.4 + libmatroska v1.7.1 / Lavf60.11.100
Attachments                              : arialbd.ttf / Arlon SemiBold DEMO.otf / Chinela Brush.ttf / CMBigFatPaintbrush.ttf / Curse Casual Regular.ttf / KozMinPro-Heavy.otf / MarkingPen Regular.ttf / Montara-Gothic-NEW.ttf / NeutonReg-2010.9.28-1.51.ttf / Nokia Standard Multiscript.TTF / Nunito-Bold.ttf / Nunito-ExtraBold.ttf / Organic Teabags.otf / SchoolRules.ttf / arial.ttf / comic.ttf / comicbd.ttf / Roboto-Medium.ttf / Roboto-MediumItalic.ttf / times.ttf / timesbd.ttf / trebuc.ttf / trebucbd.ttf / verdana.ttf / verdanab.ttf

Video
ID                                       : 1
Format                                   : AVC
Format/Info                              : Advanced Video Codec
Format profile                           : Main@L4
Format settings                          : CABAC / 4 Ref Frames
Format settings, CABAC                   : Yes
Format settings, Reference frames        : 4 frames
Codec ID                                 : V_MPEG4/ISO/AVC
Duration                                 : 23 min 41 s
Bit rate                                 : 1 952 kb/s
Width                                    : 1 920 pixels
Height                                   : 1 080 pixels
Display aspect ratio                     : 16:9
Frame rate mode                          : Constant
Frame rate                               : 23.976 (24000/1001) FPS
Color space                              : YUV
Chroma subsampling                       : 4:2:0
Bit depth                                : 8 bits
Scan type                                : Progressive
Bits/(Pixel*Frame)                       : 0.039
Stream size                              : 331 MiB (89%)
Writing library                          : x264 core 164 r3107 a8b68ebf
Encoding settings                        : cabac=1 / ref=2 / deblock=1:0:0 / analyse=0x1:0x111 / me=hex / subme=6 / psy=1 / psy_rd=1.00:0.00 / mixed_ref=1 / me_range=16 / chroma_me=1 / trellis=1 / 8x8dct=0 / cqm=0 / deadzone=21,11 / fast_pskip=1 / chroma_qp_offset=-2 / threads=24 / lookahead_threads=4 / sliced_threads=0 / nr=0 / decimate=1 / interlaced=0 / bluray_compat=0 / constrained_intra=0 / bframes=3 / b_pyramid=2 / b_adapt=1 / b_bias=0 / direct=1 / weightb=1 / open_gop=0 / weightp=1 / keyint=240 / keyint_min=24 / scenecut=40 / intra_refresh=0 / rc_lookahead=30 / rc=crf / mbtree=1 / crf=22.0 / qcomp=0.60 / qpmin=0 / qpmax=69 / qpstep=4 / vbv_maxrate=20000 / vbv_bufsize=25000 / crf_max=0.0 / nal_hrd=none / filler=0 / ip_ratio=1.40 / aq=1:1.00
Default                                  : Yes
Forced                                   : No
Color range                              : Limited
Color primaries                          : BT.709
Transfer characteristics                 : BT.709
Matrix coefficients                      : BT.709

Audio
ID                                       : 2
Format                                   : AC-3
Format/Info                              : Audio Coding 3
Commercial name                          : Dolby Digital
Codec ID                                 : A_AC3
Duration                                 : 23 min 41 s
Bit rate mode                            : Constant
Bit rate                                 : 160 kb/s
Channel(s)                               : 2 channels
Channel layout                           : L R
Sampling rate                            : 48.0 kHz
Frame rate                               : 31.250 FPS (1536 SPF)
Compression mode                         : Lossy
Delay relative to video                  : -5 ms
Stream size                              : 27.1 MiB (7%)
Language                                 : Japanese
Service kind                             : Complete Main
Default                                  : Yes
Forced                                   : No

Text #1
ID                                       : 3
Format                                   : ASS
Codec ID                                 : S_TEXT/ASS
Codec ID/Info                            : Advanced Sub Station Alpha
Duration                                 : 23 min 37 s
Bit rate                                 : 3 805 b/s
Frame rate                               : 4.981 FPS
Count of elements                        : 7063
Compression mode                         : Lossless
Stream size                              : 659 KiB (0%)
Title                                    : Chihiro Fansubs
Language                                 : English
Default                                  : Yes
Forced                                   : No

Text #2
ID                                       : 4
Format                                   : ASS
Codec ID                                 : S_TEXT/ASS
Codec ID/Info                            : Advanced Sub Station Alpha
Duration                                 : 23 min 37 s
Bit rate                                 : 143 b/s
Frame rate                               : 0.297 FPS
Count of elements                        : 421
Compression mode                         : Lossless
Stream size                              : 24.9 KiB (0%)
Title                                    : SubsPlease
Language                                 : English
Default                                  : No
Forced                                   : No

Menu
00:00:00.000                             : en:Prologue
00:01:32.009                             : en:Opening
00:03:01.973                             : en:Ayakashi Triangle 02
00:22:05.074                             : en:Ending
00:23:34.997                             : en:Preview

Other Files in this Torrent
[mehsubs] Ayakashi Triangle - 02 [0b56ad2a].mkv
beta
Anime DDL+NZB mirror
Current Time: 24/05/2024 23:10



About/FAQs

Discord