File Size399.5 MB (418,917,842 bytes)
DownloadClickNUpload | DailyUploads | DownloadGG | GoFile | KrakenFiles | MdiaLoad | MultiUp
  • BdUpload
  • DownAce
  • Fichier
  • FileCloud
  • Filerio
  • FilesCdn
  • IndiShare
  • Kbagi
  • Turbobit
  • UpToBox
  • Uppit
| Uppit
HashesCRC32: 525739D2, MD5: 622FF03ABF8C2CB10C066969D06C44BC, SHA1: 20C6E25434DE87240341824CE85F3DB8258CE687, SHA256: 46C55D73787591D2AF541039D58A8AAC43C30A76C0F95069244CD4892942CDAA, ED2K: 52ABE3BFC8D50066B34DCDE5010A0EDF
Screenshots
screenshotscreenshotscreenshotscreenshotscreenshot
SubtitlesAll Attachments | Chihiro Fansubs [eng, ASS], SubsPlease [eng, ASS]
Additional Info
General
Unique ID                                : 328214795853047262834427688297425087418 (0xF6EBDECF6AC28FF5DCC229E915252BBA)
Complete name                            : [mehsubs] Ayakashi Triangle - 10 [525739d2].mkv
Format                                   : Matroska
Format version                           : Version 4
File size                                : 400 MiB
Duration                                 : 23 min 41 s
Overall bit rate                         : 2 358 kb/s
Frame rate                               : 23.976 FPS
Encoded date                             : 2024-02-18 15:13:34 UTC
Writing application                      : mkvmerge v75.0.0 ('Goliath') 32-bit
Writing library                          : libebml v1.4.4 + libmatroska v1.7.1 / Lavf60.21.100
Attachments                              : arial.ttf / arialbd.ttf / Chinela Brush.ttf / comic.ttf / comicbd.ttf / KozMinPro-Heavy.otf / MarkingPen Regular.ttf / Montara-Gothic-NEW.ttf / Nunito-ExtraBold.ttf / Okay Marker.ttf / Roboto-Medium.ttf / Roboto-MediumItalic.ttf / SchoolRules.ttf / times.ttf / timesbd.ttf / trebuc.ttf / trebucbd.ttf / verdana.ttf / verdanab.ttf

Video
ID                                       : 1
Format                                   : AVC
Format/Info                              : Advanced Video Codec
Format profile                           : Main@L4
Format settings                          : CABAC / 4 Ref Frames
Format settings, CABAC                   : Yes
Format settings, Reference frames        : 4 frames
Codec ID                                 : V_MPEG4/ISO/AVC
Duration                                 : 23 min 41 s
Bit rate                                 : 2 132 kb/s
Width                                    : 1 920 pixels
Height                                   : 1 080 pixels
Display aspect ratio                     : 16:9
Frame rate mode                          : Constant
Frame rate                               : 23.976 (24000/1001) FPS
Color space                              : YUV
Chroma subsampling                       : 4:2:0
Bit depth                                : 8 bits
Scan type                                : Progressive
Bits/(Pixel*Frame)                       : 0.043
Stream size                              : 361 MiB (90%)
Writing library                          : x264 core 164 r3107 a8b68ebf
Encoding settings                        : cabac=1 / ref=2 / deblock=1:0:0 / analyse=0x1:0x111 / me=hex / subme=6 / psy=1 / psy_rd=1.00:0.00 / mixed_ref=1 / me_range=16 / chroma_me=1 / trellis=1 / 8x8dct=0 / cqm=0 / deadzone=21,11 / fast_pskip=1 / chroma_qp_offset=-2 / threads=24 / lookahead_threads=4 / sliced_threads=0 / nr=0 / decimate=1 / interlaced=0 / bluray_compat=0 / constrained_intra=0 / bframes=3 / b_pyramid=2 / b_adapt=1 / b_bias=0 / direct=1 / weightb=1 / open_gop=0 / weightp=1 / keyint=240 / keyint_min=24 / scenecut=40 / intra_refresh=0 / rc_lookahead=30 / rc=crf / mbtree=1 / crf=22.0 / qcomp=0.60 / qpmin=0 / qpmax=69 / qpstep=4 / vbv_maxrate=20000 / vbv_bufsize=25000 / crf_max=0.0 / nal_hrd=none / filler=0 / ip_ratio=1.40 / aq=1:1.00
Default                                  : Yes
Forced                                   : No
Color range                              : Limited
Color primaries                          : BT.709
Transfer characteristics                 : BT.709
Matrix coefficients                      : BT.709

Audio
ID                                       : 2
Format                                   : AC-3
Format/Info                              : Audio Coding 3
Commercial name                          : Dolby Digital
Codec ID                                 : A_AC3
Duration                                 : 23 min 41 s
Bit rate mode                            : Constant
Bit rate                                 : 160 kb/s
Channel(s)                               : 2 channels
Channel layout                           : L R
Sampling rate                            : 48.0 kHz
Frame rate                               : 31.250 FPS (1536 SPF)
Compression mode                         : Lossy
Delay relative to video                  : 6 ms
Stream size                              : 27.1 MiB (7%)
Title                                    : Stereo
Language                                 : Japanese
Service kind                             : Complete Main
Default                                  : Yes
Forced                                   : No

Text #1
ID                                       : 3
Format                                   : ASS
Codec ID                                 : S_TEXT/ASS
Codec ID/Info                            : Advanced Sub Station Alpha
Duration                                 : 23 min 34 s
Bit rate                                 : 3 546 b/s
Frame rate                               : 4.718 FPS
Count of elements                        : 6673
Compression mode                         : Lossless
Stream size                              : 612 KiB (0%)
Title                                    : Chihiro Fansubs
Language                                 : English
Default                                  : Yes
Forced                                   : No

Text #2
ID                                       : 4
Format                                   : ASS
Codec ID                                 : S_TEXT/ASS
Codec ID/Info                            : Advanced Sub Station Alpha
Duration                                 : 23 min 34 s
Bit rate                                 : 141 b/s
Frame rate                               : 0.269 FPS
Count of elements                        : 380
Compression mode                         : Lossless
Stream size                              : 24.4 KiB (0%)
Title                                    : SubsPlease
Language                                 : English
Default                                  : No
Forced                                   : No

Menu
00:00:00.000                             : Prologue
00:01:32.009                             : Opening
00:03:01.974                             : Ayakashi Triangle 10
00:22:04.992                             : Ending
00:23:34.998                             : Preview

Other Files in this Torrent
[mehsubs] Ayakashi Triangle - 10 [525739d2].mkv
beta
Anime DDL+NZB mirror
Current Time: 24/05/2024 23:54



About/FAQs

Discord