File Size378.2 MB (396,594,191 bytes)
DownloadClickNUpload | DailyUploads | DownloadGG | GoFile | KrakenFiles | MdiaLoad | MultiUp
  • BdUpload
  • DownAce
  • Fichier
  • FileCloud
  • Filerio
  • FilesCdn
  • IndiShare
  • Kbagi
  • Turbobit
  • UpToBox
  • Uppit
| Uppit
HashesCRC32: 352694F6, MD5: 0FC1245F8BBCA6C5377BA7F56102619F, SHA1: BE268860CC3C4149F917CE8025242FE3820C1EE8, SHA256: 3D78A713BAD41C15CBA3DE32142E0FFBC078097F88B6CC9C43A60B8D0777B5FA, ED2K: C4FD0F35EBE5D1ADB011854A1B3814C8
Screenshots
screenshotscreenshotscreenshotscreenshotscreenshot
SubtitlesAll Attachments | Chihiro Fansubs [eng, ASS], SubsPlease [eng, ASS]
Additional Info
General
Unique ID                                : 270847968990397196092249853667514911178 (0xCBC36BDFEBAC3283A247AB68B17E09CA)
Complete name                            : [mehsubs] Ayakashi Triangle - 03 [352694f6].mkv
Format                                   : Matroska
Format version                           : Version 4
File size                                : 378 MiB
Duration                                 : 23 min 41 s
Overall bit rate                         : 2 233 kb/s
Frame rate                               : 23.976 FPS
Encoded date                             : 2024-01-02 22:07:15 UTC
Writing application                      : mkvmerge v75.0.0 ('Goliath') 32-bit
Writing library                          : libebml v1.4.4 + libmatroska v1.7.1 / Lavf60.15.101
Attachments                              : arialbd.ttf / arinda.ttf / ArnoPro-SmbdCaption.otf / BROOK23.TTF / Chinela Brush.ttf / KozMinPro-Heavy.otf / MarkingPen Regular.ttf / Montara-Gothic-NEW.ttf / Narbonne.ttf / Nokia Standard Multiscript.TTF / Noticia Text Bold.ttf / Nunito-ExtraBold.ttf / Poplar Std.otf / SchoolRules.ttf / TT_Matisse-B.TTF

Video
ID                                       : 1
Format                                   : AVC
Format/Info                              : Advanced Video Codec
Format profile                           : Main@L4
Format settings                          : CABAC / 4 Ref Frames
Format settings, CABAC                   : Yes
Format settings, Reference frames        : 4 frames
Codec ID                                 : V_MPEG4/ISO/AVC
Duration                                 : 23 min 41 s
Bit rate                                 : 1 990 kb/s
Width                                    : 1 920 pixels
Height                                   : 1 080 pixels
Display aspect ratio                     : 16:9
Frame rate mode                          : Constant
Frame rate                               : 23.976 (24000/1001) FPS
Color space                              : YUV
Chroma subsampling                       : 4:2:0
Bit depth                                : 8 bits
Scan type                                : Progressive
Bits/(Pixel*Frame)                       : 0.040
Stream size                              : 337 MiB (89%)
Writing library                          : x264 core 164 r3107 a8b68ebf
Encoding settings                        : cabac=1 / ref=2 / deblock=1:0:0 / analyse=0x1:0x111 / me=hex / subme=6 / psy=1 / psy_rd=1.00:0.00 / mixed_ref=1 / me_range=16 / chroma_me=1 / trellis=1 / 8x8dct=0 / cqm=0 / deadzone=21,11 / fast_pskip=1 / chroma_qp_offset=-2 / threads=24 / lookahead_threads=4 / sliced_threads=0 / nr=0 / decimate=1 / interlaced=0 / bluray_compat=0 / constrained_intra=0 / bframes=3 / b_pyramid=2 / b_adapt=1 / b_bias=0 / direct=1 / weightb=1 / open_gop=0 / weightp=1 / keyint=240 / keyint_min=24 / scenecut=40 / intra_refresh=0 / rc_lookahead=30 / rc=crf / mbtree=1 / crf=22.0 / qcomp=0.60 / qpmin=0 / qpmax=69 / qpstep=4 / vbv_maxrate=20000 / vbv_bufsize=25000 / crf_max=0.0 / nal_hrd=none / filler=0 / ip_ratio=1.40 / aq=1:1.00
Default                                  : Yes
Forced                                   : No
Color range                              : Limited
Color primaries                          : BT.709
Transfer characteristics                 : BT.709
Matrix coefficients                      : BT.709

Audio
ID                                       : 2
Format                                   : AC-3
Format/Info                              : Audio Coding 3
Commercial name                          : Dolby Digital
Codec ID                                 : A_AC3
Duration                                 : 23 min 41 s
Bit rate mode                            : Constant
Bit rate                                 : 160 kb/s
Channel(s)                               : 2 channels
Channel layout                           : L R
Sampling rate                            : 48.0 kHz
Frame rate                               : 31.250 FPS (1536 SPF)
Compression mode                         : Lossy
Delay relative to video                  : -5 ms
Stream size                              : 27.1 MiB (7%)
Language                                 : Japanese
Service kind                             : Complete Main
Default                                  : Yes
Forced                                   : No

Text #1
ID                                       : 3
Format                                   : ASS
Codec ID                                 : S_TEXT/ASS
Codec ID/Info                            : Advanced Sub Station Alpha
Duration                                 : 23 min 26 s
Bit rate                                 : 4 398 b/s
Frame rate                               : 5.451 FPS
Count of elements                        : 7667
Compression mode                         : Lossless
Stream size                              : 755 KiB (0%)
Title                                    : Chihiro Fansubs
Language                                 : English
Default                                  : Yes
Forced                                   : No

Text #2
ID                                       : 4
Format                                   : ASS
Codec ID                                 : S_TEXT/ASS
Codec ID/Info                            : Advanced Sub Station Alpha
Duration                                 : 23 min 26 s
Bit rate                                 : 154 b/s
Frame rate                               : 0.294 FPS
Count of elements                        : 414
Compression mode                         : Lossless
Stream size                              : 26.6 KiB (0%)
Title                                    : SubsPlease
Language                                 : English
Default                                  : No
Forced                                   : No

Menu
00:00:00.000                             : Prologue
00:01:36.013                             : Opening
00:03:05.978                             : Ayakashi Triangle 03
00:22:04.950                             : Ending
00:23:34.957                             : Preview

Other Files in this Torrent
[mehsubs] Ayakashi Triangle - 03 [352694f6].mkv
beta
Anime DDL+NZB mirror
Current Time: 24/05/2024 23:36



About/FAQs

Discord