File Size44.52 MB (46,687,154 bytes)
DownloadClickNUpload | DailyUploads | DownloadGG | GoFile | KrakenFiles | MdiaLoad | MultiUp
  • BdUpload
  • DownAce
  • Fichier
  • FileCloud
  • Filerio
  • FilesCdn
  • IndiShare
  • Kbagi
  • Turbobit
  • UpToBox
  • Uppit
| Uppit
HashesCRC32: 23573128, MD5: 0F6850BD983DD8FAAB0715535F0423DB, SHA1: 1519E5950842423C6668992BF174609C27460F06, SHA256: 71B1C097B002FD045BD0AF63801EC90846D6F4CF5129CFBCFA514A4887F390EC, ED2K: 4DF35D5BF93F28E3064B17271EA96877
Screenshots
screenshotscreenshot
Additional Info
General
Complete name                            : Ayakashi Triangle - Ncop [82Eab45b].mp4
Format                                   : MPEG-4
Format profile                           : Base Media / Version 2
Codec ID                                 : mp42 (mp42/dby1/iso2/avc1/mp41)
File size                                : 44.5 MiB
Duration                                 : 1 min 31 s
Overall bit rate                         : 4 100 kb/s
Frame rate                               : 23.976 FPS
Encoded date                             : 2024-01-02 21:31:19 UTC
Tagged date                              : 2024-01-02 21:31:19 UTC
Writing application                      : HandBrake 1.7.2 2023122400

Video
ID                                       : 1
Format                                   : AVC
Format/Info                              : Advanced Video Codec
Format profile                           : Main@L4
Format settings                          : CABAC / 4 Ref Frames
Format settings, CABAC                   : Yes
Format settings, Reference frames        : 4 frames
Codec ID                                 : avc1
Codec ID/Info                            : Advanced Video Coding
Duration                                 : 1 min 31 s
Bit rate                                 : 3 934 kb/s
Width                                    : 1 920 pixels
Height                                   : 1 080 pixels
Display aspect ratio                     : 16:9
Frame rate mode                          : Variable
Frame rate                               : 23.976 FPS
Minimum frame rate                       : 23.974 FPS
Maximum frame rate                       : 23.981 FPS
Color space                              : YUV
Chroma subsampling                       : 4:2:0
Bit depth                                : 8 bits
Scan type                                : Progressive
Bits/(Pixel*Frame)                       : 0.079
Stream size                              : 42.7 MiB (96%)
Writing library                          : x264 core 164 r3107 a8b68ebf
Encoding settings                        : cabac=1 / ref=2 / deblock=1:0:0 / analyse=0x1:0x111 / me=hex / subme=6 / psy=1 / psy_rd=1.00:0.00 / mixed_ref=1 / me_range=16 / chroma_me=1 / trellis=1 / 8x8dct=0 / cqm=0 / deadzone=21,11 / fast_pskip=1 / chroma_qp_offset=-2 / threads=24 / lookahead_threads=4 / sliced_threads=0 / nr=0 / decimate=1 / interlaced=0 / bluray_compat=0 / constrained_intra=0 / bframes=3 / b_pyramid=2 / b_adapt=1 / b_bias=0 / direct=1 / weightb=1 / open_gop=0 / weightp=1 / keyint=240 / keyint_min=24 / scenecut=40 / intra_refresh=0 / rc_lookahead=30 / rc=crf / mbtree=1 / crf=22.0 / qcomp=0.60 / qpmin=0 / qpmax=69 / qpstep=4 / vbv_maxrate=20000 / vbv_bufsize=25000 / crf_max=0.0 / nal_hrd=none / filler=0 / ip_ratio=1.40 / aq=1:1.00
Encoded date                             : 2024-01-02 21:31:19 UTC
Tagged date                              : 2024-01-02 21:31:19 UTC
Color range                              : Limited
Color primaries                          : BT.709
Transfer characteristics                 : BT.709
Matrix coefficients                      : BT.709
mdhd_Duration                            : 91091
Codec configuration box                  : avcC

Audio
ID                                       : 2
Format                                   : AC-3
Format/Info                              : Audio Coding 3
Commercial name                          : Dolby Digital
Codec ID                                 : ac-3
Duration                                 : 1 min 31 s
Source duration                          : 1 min 31 s
Bit rate mode                            : Constant
Bit rate                                 : 160 kb/s
Channel(s)                               : 2 channels
Channel layout                           : L R
Sampling rate                            : 48.0 kHz
Frame rate                               : 31.250 FPS (1536 SPF)
Compression mode                         : Lossy
Stream size                              : 1.74 MiB (4%)
Source stream size                       : 1.74 MiB (4%)
Title                                    : Stereo / Stereo
Language                                 : Japanese
Service kind                             : Complete Main
Default                                  : Yes
Alternate group                          : 1
Encoded date                             : 2024-01-02 21:31:19 UTC
Tagged date                              : 2024-01-02 21:31:19 UTC

Other Files in this Torrent
Ayakashi Triangle - Ncop [82Eab45b].mp4
beta
Anime DDL+NZB mirror
Current Time: 24/05/2024 23:19



About/FAQs

Discord