File Size450.1 MB (471,925,033 bytes)
DownloadClickNUpload | DailyUploads | DownloadGG | GoFile | KrakenFiles | MdiaLoad | MultiUp
  • BdUpload
  • DownAce
  • Fichier
  • FileCloud
  • Filerio
  • FilesCdn
  • IndiShare
  • Kbagi
  • Turbobit
  • UpToBox
  • Uppit
| Uppit
HashesCRC32: 7AA82B50, MD5: 139827119CEFC1F38B56F76B428DDC4E, SHA1: 7AECC6CE00301EE0CF726BBC9929131E7DD62110, SHA256: F67FB33E8B5B214E1D8BD22476B4F95FD252B7567C206823473BFFC2344F1A12, ED2K: 3F99BEF1B20517F52751DFD190056B43
Screenshots
screenshotscreenshotscreenshotscreenshotscreenshot
SubtitlesAll Attachments | Chihiro Fansubs [eng, ASS], SubsPlease [eng, ASS]
Additional Info
General
Unique ID                                : 107907017960801269076248996338631767832 (0x512E22BDE462272BAA735FB16B54F718)
Complete name                            : [mehsubs] Ayakashi Triangle - 11 [7aa82b50].mkv
Format                                   : Matroska
Format version                           : Version 4
File size                                : 450 MiB
Duration                                 : 23 min 41 s
Overall bit rate                         : 2 657 kb/s
Frame rate                               : 23.976 FPS
Encoded date                             : 2024-04-02 14:52:46 UTC
Writing application                      : mkvmerge v75.0.0 ('Goliath') 32-bit
Writing library                          : libebml v1.4.4 + libmatroska v1.7.1 / Lavf61.2.100
Attachments                              : Chinela Brush.ttf / KozMinPro-Heavy.otf / MarkingPen Regular.ttf / Montara-Gothic-NEW.ttf / Nunito-ExtraBold.ttf / SchoolRules.ttf / arial.ttf / arialbd.ttf / comic.ttf / comicbd.ttf / CONSOLA.TTF / CONSOLAB.TTF / Roboto-Medium.ttf / Roboto-MediumItalic.ttf / times.ttf / timesbd.ttf / trebuc.ttf / trebucbd.ttf / verdana.ttf / verdanab.ttf

Video
ID                                       : 1
Format                                   : AVC
Format/Info                              : Advanced Video Codec
Format profile                           : Main@L4
Format settings                          : CABAC / 4 Ref Frames
Format settings, CABAC                   : Yes
Format settings, Reference frames        : 4 frames
Codec ID                                 : V_MPEG4/ISO/AVC
Duration                                 : 23 min 41 s
Bit rate                                 : 2 427 kb/s
Width                                    : 1 920 pixels
Height                                   : 1 080 pixels
Display aspect ratio                     : 16:9
Frame rate mode                          : Constant
Frame rate                               : 23.976 (24000/1001) FPS
Color space                              : YUV
Chroma subsampling                       : 4:2:0
Bit depth                                : 8 bits
Scan type                                : Progressive
Bits/(Pixel*Frame)                       : 0.049
Stream size                              : 411 MiB (91%)
Writing library                          : x264 core 164 r3107 a8b68ebf
Encoding settings                        : cabac=1 / ref=2 / deblock=1:0:0 / analyse=0x1:0x111 / me=hex / subme=6 / psy=1 / psy_rd=1.00:0.00 / mixed_ref=1 / me_range=16 / chroma_me=1 / trellis=1 / 8x8dct=0 / cqm=0 / deadzone=21,11 / fast_pskip=1 / chroma_qp_offset=-2 / threads=24 / lookahead_threads=4 / sliced_threads=0 / nr=0 / decimate=1 / interlaced=0 / bluray_compat=0 / constrained_intra=0 / bframes=3 / b_pyramid=2 / b_adapt=1 / b_bias=0 / direct=1 / weightb=1 / open_gop=0 / weightp=1 / keyint=240 / keyint_min=24 / scenecut=40 / intra_refresh=0 / rc_lookahead=30 / rc=crf / mbtree=1 / crf=22.0 / qcomp=0.60 / qpmin=0 / qpmax=69 / qpstep=4 / vbv_maxrate=20000 / vbv_bufsize=25000 / crf_max=0.0 / nal_hrd=none / filler=0 / ip_ratio=1.40 / aq=1:1.00
Default                                  : Yes
Forced                                   : No
Color range                              : Limited
Color primaries                          : BT.709
Transfer characteristics                 : BT.709
Matrix coefficients                      : BT.709

Audio
ID                                       : 2
Format                                   : AC-3
Format/Info                              : Audio Coding 3
Commercial name                          : Dolby Digital
Codec ID                                 : A_AC3
Duration                                 : 23 min 41 s
Bit rate mode                            : Constant
Bit rate                                 : 160 kb/s
Channel(s)                               : 2 channels
Channel layout                           : L R
Sampling rate                            : 48.0 kHz
Frame rate                               : 31.250 FPS (1536 SPF)
Compression mode                         : Lossy
Delay relative to video                  : 6 ms
Stream size                              : 27.1 MiB (6%)
Title                                    : Stereo
Language                                 : Japanese
Service kind                             : Complete Main
Default                                  : Yes
Forced                                   : No

Text #1
ID                                       : 3
Format                                   : ASS
Codec ID                                 : S_TEXT/ASS
Codec ID/Info                            : Advanced Sub Station Alpha
Duration                                 : 23 min 35 s
Bit rate                                 : 3 532 b/s
Frame rate                               : 4.707 FPS
Count of elements                        : 6661
Compression mode                         : Lossless
Stream size                              : 610 KiB (0%)
Title                                    : Chihiro Fansubs
Language                                 : English
Default                                  : Yes
Forced                                   : No

Text #2
ID                                       : 4
Format                                   : ASS
Codec ID                                 : S_TEXT/ASS
Codec ID/Info                            : Advanced Sub Station Alpha
Duration                                 : 23 min 35 s
Bit rate                                 : 139 b/s
Frame rate                               : 0.268 FPS
Count of elements                        : 379
Compression mode                         : Lossless
Stream size                              : 24.1 KiB (0%)
Title                                    : SubsPlease
Language                                 : English
Default                                  : No
Forced                                   : No

Menu
00:00:00.000                             : Prologue
00:00:52.052                             : Opening
00:02:22.017                             : Ayakashi Triangle 11
00:22:04.952                             : Ending
00:23:34.957                             : Preview

Other Files in this Torrent
[mehsubs] Ayakashi Triangle - 11 [7aa82b50].mkv
beta
Anime DDL+NZB mirror
Current Time: 24/05/2024 22:36



About/FAQs

Discord