File Size351.5 MB (368,620,300 bytes)
DownloadClickNUpload | DailyUploads | DownloadGG | GoFile | KrakenFiles | MdiaLoad | MultiUp
  • BdUpload
  • DownAce
  • Fichier
  • FileCloud
  • Filerio
  • FilesCdn
  • IndiShare
  • Kbagi
  • Turbobit
  • UpToBox
  • Uppit
| Uppit
HashesCRC32: 3C6CFAF2, MD5: 9EB2CAC44045926686D62918000A7BB5, SHA1: C4F134DF76A79BEFAB2965249D783418C07E38FF, SHA256: 6779AB04D43462997F756A6F2341DA485FDA428A0064096F9E2762FA654019B9, ED2K: 4CDE393C9763A77EF8FE22465EF0CFDC
Screenshots
screenshotscreenshotscreenshotscreenshotscreenshot
SubtitlesAll Attachments | Chihiro Fansubs [eng, ASS], SubsPlease [eng, ASS]
Additional Info
General
Unique ID                                : 156309800477536555911504032567309122167 (0x75982C2B31AA39E0F73FE41CC36C3A77)
Complete name                            : [mehsubs] Ayakashi Triangle - 09 [3c6cfaf2].mkv
Format                                   : Matroska
Format version                           : Version 4
File size                                : 352 MiB
Duration                                 : 23 min 41 s
Overall bit rate                         : 2 075 kb/s
Frame rate                               : 23.976 FPS
Encoded date                             : 2024-02-18 15:11:35 UTC
Writing application                      : mkvmerge v75.0.0 ('Goliath') 32-bit
Writing library                          : libebml v1.4.4 + libmatroska v1.7.1 / Lavf60.21.100
Attachments                              : Aristotelica Display DemiBold Trial.ttf / Artifika.ttf / Chinela Brush.ttf / Full Dece Sans.ttf / KGTurningTables.ttf / KozMinPro-Heavy.otf / Kronika.ttf / MarkingPen Regular.ttf / Montara-Gothic-NEW.ttf / Nunito-ExtraBold.ttf / SchoolRules.ttf / arial.ttf / arialbd.ttf / comic.ttf / comicbd.ttf / Roboto-Medium.ttf / Roboto-MediumItalic.ttf / times.ttf / timesbd.ttf / trebuc.ttf / trebucbd.ttf / verdana.ttf / verdanab.ttf

Video
ID                                       : 1
Format                                   : AVC
Format/Info                              : Advanced Video Codec
Format profile                           : Main@L4
Format settings                          : CABAC / 4 Ref Frames
Format settings, CABAC                   : Yes
Format settings, Reference frames        : 4 frames
Codec ID                                 : V_MPEG4/ISO/AVC
Duration                                 : 23 min 41 s
Bit rate                                 : 1 846 kb/s
Width                                    : 1 920 pixels
Height                                   : 1 080 pixels
Display aspect ratio                     : 16:9
Frame rate mode                          : Constant
Frame rate                               : 23.976 (24000/1001) FPS
Color space                              : YUV
Chroma subsampling                       : 4:2:0
Bit depth                                : 8 bits
Scan type                                : Progressive
Bits/(Pixel*Frame)                       : 0.037
Stream size                              : 313 MiB (89%)
Writing library                          : x264 core 164 r3107 a8b68ebf
Encoding settings                        : cabac=1 / ref=2 / deblock=1:0:0 / analyse=0x1:0x111 / me=hex / subme=6 / psy=1 / psy_rd=1.00:0.00 / mixed_ref=1 / me_range=16 / chroma_me=1 / trellis=1 / 8x8dct=0 / cqm=0 / deadzone=21,11 / fast_pskip=1 / chroma_qp_offset=-2 / threads=24 / lookahead_threads=4 / sliced_threads=0 / nr=0 / decimate=1 / interlaced=0 / bluray_compat=0 / constrained_intra=0 / bframes=3 / b_pyramid=2 / b_adapt=1 / b_bias=0 / direct=1 / weightb=1 / open_gop=0 / weightp=1 / keyint=240 / keyint_min=24 / scenecut=40 / intra_refresh=0 / rc_lookahead=30 / rc=crf / mbtree=1 / crf=22.0 / qcomp=0.60 / qpmin=0 / qpmax=69 / qpstep=4 / vbv_maxrate=20000 / vbv_bufsize=25000 / crf_max=0.0 / nal_hrd=none / filler=0 / ip_ratio=1.40 / aq=1:1.00
Default                                  : Yes
Forced                                   : No
Color range                              : Limited
Color primaries                          : BT.709
Transfer characteristics                 : BT.709
Matrix coefficients                      : BT.709

Audio
ID                                       : 2
Format                                   : AC-3
Format/Info                              : Audio Coding 3
Commercial name                          : Dolby Digital
Codec ID                                 : A_AC3
Duration                                 : 23 min 41 s
Bit rate mode                            : Constant
Bit rate                                 : 160 kb/s
Channel(s)                               : 2 channels
Channel layout                           : L R
Sampling rate                            : 48.0 kHz
Frame rate                               : 31.250 FPS (1536 SPF)
Compression mode                         : Lossy
Delay relative to video                  : 6 ms
Stream size                              : 27.1 MiB (8%)
Title                                    : Stereo
Language                                 : Japanese
Service kind                             : Complete Main
Default                                  : Yes
Forced                                   : No

Text #1
ID                                       : 3
Format                                   : ASS
Codec ID                                 : S_TEXT/ASS
Codec ID/Info                            : Advanced Sub Station Alpha
Duration                                 : 23 min 30 s
Bit rate                                 : 4 505 b/s
Frame rate                               : 5.372 FPS
Count of elements                        : 7576
Compression mode                         : Lossless
Stream size                              : 776 KiB (0%)
Title                                    : Chihiro Fansubs
Language                                 : English
Default                                  : Yes
Forced                                   : No

Text #2
ID                                       : 4
Format                                   : ASS
Codec ID                                 : S_TEXT/ASS
Codec ID/Info                            : Advanced Sub Station Alpha
Duration                                 : 23 min 30 s
Bit rate                                 : 156 b/s
Frame rate                               : 0.323 FPS
Count of elements                        : 455
Compression mode                         : Lossless
Stream size                              : 27.0 KiB (0%)
Title                                    : SubsPlease
Language                                 : English
Default                                  : No
Forced                                   : No

Menu
00:00:00.000                             : Prologue
00:00:35.035                             : Opening
00:02:05.000                             : Ayakashi Triangle 09
00:21:42.010                             : Ending
00:23:11.975                             : Epilogue
00:23:34.998                             : Preview

Other Files in this Torrent
[mehsubs] Ayakashi Triangle - 09 [3c6cfaf2].mkv
beta
Anime DDL+NZB mirror
Current Time: 24/05/2024 22:44



About/FAQs

Discord