File Size258.3 MB (270,886,840 bytes)
DownloadClickNUpload | Go4Up | Jheberg | MultiUp | OpenLoad | Sendspace | SolidFiles | ZippyShare
HashesCRC32: 3C93880A, MD5: 8B004F538AA3F4F72978EDECB42E5636, SHA1: 8C4698E0E0FF94054E3B50369F2BFD02F5B8A631, SHA256: F9C82F87001A3B93E86BD99A544FADC05C9566BD894367EBB94D9DB2AEB05A32, ED2K: E349B9FB0677429D65A6E80EB46B0EAF
Screenshots
screenshotscreenshotscreenshotscreenshotscreenshot
SubtitlesAll Attachments | Signs & Signs [eng, ASS], Full [eng, ASS]
Additional Info
General
Unique ID                                : 306308126836037666928739828538421682385 (0xE670CCA3661C21D577E1EDD8271220D1)
Complete name                            : Made in Abyss 1x11.mkv
Format                                   : Matroska
Format version                           : Version 4 / Version 2
File size                                : 258 MiB
Duration                                 : 24 min 43 s
Overall bit rate mode                    : Variable
Overall bit rate                         : 1 461 kb/s
Encoded date                             : UTC 2018-10-24 20:43:38
Writing application                      : mkvmerge v20.0.0 ('I Am The Sun') 64-bit
Writing library                          : libebml v1.3.5 + libmatroska v1.4.8
Attachments                              : Barmeno-Roman.ttf / LT.ttf / LTFinnegan MediumItalic.ttf / maagkramp.ttf / playtime.ttf / Qlassik_TB.otf / Remains.ttf

Video
ID                                       : 1
Format                                   : AVC
Format/Info                              : Advanced Video Codec
Format profile                           : High@L3.1
Format settings, CABAC                   : Yes
Format settings, ReFrames                : 2 frames
Codec ID                                 : V_MPEG4/ISO/AVC
Duration                                 : 24 min 43 s
Bit rate mode                            : Variable
Bit rate                                 : 1 185 kb/s
Maximum bit rate                         : 1 750 kb/s
Width                                    : 1 280 pixels
Height                                   : 720 pixels
Display aspect ratio                     : 16:9
Frame rate mode                          : Constant
Frame rate                               : 24.000 FPS
Color space                              : YUV
Chroma subsampling                       : 4:2:0
Bit depth                                : 8 bits
Scan type                                : Progressive
Bits/(Pixel*Frame)                       : 0.054
Stream size                              : 210 MiB (81%)
Default                                  : Yes
Forced                                   : No

Audio #1
ID                                       : 2
Format                                   : AAC
Format/Info                              : Advanced Audio Codec
Format profile                           : LC
Codec ID                                 : A_AAC
Duration                                 : 23 min 43 s
Bit rate                                 : 154 kb/s
Channel(s)                               : 2 channels
Channel positions                        : Front: L R
Sampling rate                            : 44.1 kHz
Frame rate                               : 43.066 FPS (1024 spf)
Compression mode                         : Lossy
Delay relative to video                  : -46 ms
Stream size                              : 26.1 MiB (10%)
Language                                 : English
Default                                  : Yes
Forced                                   : No

Audio #2
ID                                       : 3
Format                                   : AAC
Format/Info                              : Advanced Audio Codec
Format profile                           : LC
Codec ID                                 : A_AAC
Duration                                 : 23 min 41 s
Bit rate                                 : 127 kb/s
Channel(s)                               : 2 channels
Channel positions                        : Front: L R
Sampling rate                            : 48.0 kHz
Frame rate                               : 46.875 FPS (1024 spf)
Compression mode                         : Lossy
Delay relative to video                  : -44 ms
Stream size                              : 21.6 MiB (8%)
Language                                 : Japanese
Default                                  : No
Forced                                   : No

Text #1
ID                                       : 4
Format                                   : ASS
Codec ID                                 : S_TEXT/ASS
Codec ID/Info                            : Advanced Sub Station Alpha
Duration                                 : 19 min 52 s
Bit rate                                 : 393 b/s
Count of elements                        : 67
Compression mode                         : Lossless
Stream size                              : 57.2 KiB (0%)
Title                                    : Signs & Signs
Language                                 : English
Default                                  : Yes
Forced                                   : No

Text #2
ID                                       : 5
Format                                   : ASS
Codec ID                                 : S_TEXT/ASS
Codec ID/Info                            : Advanced Sub Station Alpha
Duration                                 : 23 min 37 s
Bit rate                                 : 429 b/s
Count of elements                        : 383
Compression mode                         : Lossless
Stream size                              : 74.3 KiB (0%)
Title                                    : Full
Language                                 : English
Default                                  : No
Forced                                   : Yes

Menu
00:00:00.000                             : en:Chapter 01
00:03:33.588                             : en:Chapter 02
00:05:03.553                             : en:Chapter 03
00:13:38.609                             : en:Chapter 04
00:22:00.569                             : en:Chapter 05
00:23:30.576                             : en:Chapter 06
00:23:42.421                             : en:Chapter 07

Other Files in this Torrent
Made in Abyss 1x11.mkv
beta
Anime DDL+NZB mirror
Current Time: 13/07/2024 00:00



About/FAQs

Discord