File Size306.3 MB (321,190,870 bytes)
DownloadClickNUpload | Go4Up | Jheberg | MultiUp | OpenLoad | SolidFiles | ZippyShare
Sendspace: Part1, Part2
HashesCRC32: 7597890C, MD5: 1884188079BB2D28BAC5B40861F4B3D4, SHA1: 58ABEFC9DEC3DDECBA35935CFD8CF01A4A3E8FCC, SHA256: DFA4D31DB288553B1BE8BD2BF6A1868A509BE45C448A872DCE831A8A00CC939E, ED2K: E93376C549B747F8401A123F16B9EDC9
Screenshots
screenshotscreenshotscreenshotscreenshotscreenshot
SubtitlesAll Attachments | Signs & Songs [eng, ASS], Full [eng, ASS]
Additional Info
General
Unique ID                                : 256525038035001266520707032876041078620 (0xC0FCECDB7555120538A3F8B5CB53875C)
Complete name                            : Made in Abyss 1x10.mkv
Format                                   : Matroska
Format version                           : Version 4 / Version 2
File size                                : 306 MiB
Duration                                 : 24 min 43 s
Overall bit rate                         : 1 732 kb/s
Encoded date                             : UTC 2018-10-24 20:39:06
Writing application                      : mkvmerge v20.0.0 ('I Am The Sun') 64-bit
Writing library                          : libebml v1.3.5 + libmatroska v1.4.8
Attachments                              : Barmeno-Roman.ttf / LT.ttf / LTFinnegan MediumItalic.ttf / maagkramp.ttf / playtime.ttf / Qlassik_TB.otf / Remains.ttf

Video
ID                                       : 1
Format                                   : AVC
Format/Info                              : Advanced Video Codec
Format profile                           : Main@L5
Format settings, CABAC                   : Yes
Format settings, ReFrames                : 8 frames
Format settings, GOP                     : N=1
Codec ID                                 : V_MPEG4/ISO/AVC
Duration                                 : 24 min 43 s
Bit rate                                 : 1 419 kb/s
Width                                    : 1 920 pixels
Height                                   : 1 080 pixels
Display aspect ratio                     : 16:9
Frame rate mode                          : Constant
Frame rate                               : 24.000 FPS
Color space                              : YUV
Chroma subsampling                       : 4:2:0
Bit depth                                : 8 bits
Scan type                                : Progressive
Bits/(Pixel*Frame)                       : 0.029
Stream size                              : 251 MiB (82%)
Default                                  : Yes
Forced                                   : No

Audio #1
ID                                       : 2
Format                                   : AAC
Format/Info                              : Advanced Audio Codec
Format profile                           : LC
Codec ID                                 : A_AAC
Duration                                 : 23 min 43 s
Bit rate                                 : 192 kb/s
Channel(s)                               : 2 channels
Channel positions                        : Front: L R
Sampling rate                            : 44.1 kHz
Frame rate                               : 43.066 FPS (1024 spf)
Compression mode                         : Lossy
Delay relative to video                  : -46 ms
Stream size                              : 32.6 MiB (11%)
Language                                 : English
Default                                  : Yes
Forced                                   : No

Audio #2
ID                                       : 3
Format                                   : AAC
Format/Info                              : Advanced Audio Codec
Format profile                           : LC
Codec ID                                 : A_AAC
Duration                                 : 23 min 41 s
Bit rate                                 : 129 kb/s
Channel(s)                               : 2 channels
Channel positions                        : Front: L R
Sampling rate                            : 48.0 kHz
Frame rate                               : 46.875 FPS (1024 spf)
Compression mode                         : Lossy
Delay relative to video                  : -31 ms
Stream size                              : 21.8 MiB (7%)
Language                                 : Japanese
Default                                  : No
Forced                                   : No

Text #1
ID                                       : 4
Format                                   : ASS
Codec ID                                 : S_TEXT/ASS
Codec ID/Info                            : Advanced Sub Station Alpha
Duration                                 : 20 min 43 s
Bit rate                                 : 376 b/s
Count of elements                        : 67
Compression mode                         : Lossless
Stream size                              : 57.2 KiB (0%)
Title                                    : Signs & Songs
Language                                 : English
Default                                  : Yes
Forced                                   : No

Text #2
ID                                       : 5
Format                                   : ASS
Codec ID                                 : S_TEXT/ASS
Codec ID/Info                            : Advanced Sub Station Alpha
Duration                                 : 23 min 38 s
Bit rate                                 : 414 b/s
Count of elements                        : 359
Compression mode                         : Lossless
Stream size                              : 71.8 KiB (0%)
Title                                    : Full
Language                                 : English
Default                                  : No
Forced                                   : Yes

Menu
00:00:00.000                             : en:Chapter 01
00:02:42.746                             : en:Chapter 02
00:04:12.711                             : en:Chapter 03
00:10:47.772                             : en:Chapter 04
00:22:00.736                             : en:Chapter 05
00:23:30.743                             : en:Chapter 06
00:23:42.421                             : en:Chapter 07

Other Files in this Torrent
Made in Abyss 1x10.mkv
beta
Anime DDL+NZB mirror
Current Time: 21/06/2024 22:46



About/FAQs

Discord