File Size274.6 MB (287,925,765 bytes)
DownloadClickNUpload | Go4Up | Jheberg | MultiUp | OpenLoad | Sendspace | SolidFiles | ZippyShare
HashesCRC32: A150BBAA, MD5: 8CB933ED3E6F89C8BECD8C2753F543EA, SHA1: A31B3458656D8F9D5B065C15C4BACBC25BE934EF, SHA256: D440EF7E4E1D98C52626C3D7EB05F336FBAD9BFD77204E5F7B21A60F3144798C, ED2K: C30E651198970987EA8244CD6FA29AF8
Screenshots
screenshotscreenshotscreenshotscreenshotscreenshot
SubtitlesAll Attachments | Signs & Songs [eng, ASS], Full [eng, ASS]
Additional Info
General
Unique ID                                : 254037804236719253021119312322517292984 (0xBF1DE6C35E5B8F901BA490C6A74C57B8)
Complete name                            : Made in Abyss 1x03.mkv
Format                                   : Matroska
Format version                           : Version 4 / Version 2
File size                                : 275 MiB
Duration                                 : 24 min 43 s
Overall bit rate                         : 1 553 kb/s
Encoded date                             : UTC 2018-10-24 19:10:08
Writing application                      : mkvmerge v20.0.0 ('I Am The Sun') 64-bit
Writing library                          : libebml v1.3.5 + libmatroska v1.4.8
Attachments                              : Barmeno-Roman.ttf / LT.ttf / LTFinnegan MediumItalic.ttf / maagkramp.ttf / playtime.ttf / Qlassik_TB.otf / Remains.ttf

Video
ID                                       : 1
Format                                   : AVC
Format/Info                              : Advanced Video Codec
Format profile                           : Main@L5
Format settings, CABAC                   : Yes
Format settings, ReFrames                : 8 frames
Format settings, GOP                     : M=4, N=50
Codec ID                                 : V_MPEG4/ISO/AVC
Duration                                 : 24 min 43 s
Bit rate                                 : 1 246 kb/s
Width                                    : 1 920 pixels
Height                                   : 1 080 pixels
Display aspect ratio                     : 16:9
Frame rate mode                          : Constant
Frame rate                               : 24.000 FPS
Color space                              : YUV
Chroma subsampling                       : 4:2:0
Bit depth                                : 8 bits
Scan type                                : Progressive
Bits/(Pixel*Frame)                       : 0.025
Stream size                              : 220 MiB (80%)
Default                                  : Yes
Forced                                   : No

Audio #1
ID                                       : 2
Format                                   : AAC
Format/Info                              : Advanced Audio Codec
Format profile                           : LC
Codec ID                                 : A_AAC
Duration                                 : 23 min 43 s
Bit rate                                 : 192 kb/s
Channel(s)                               : 2 channels
Channel positions                        : Front: L R
Sampling rate                            : 44.1 kHz
Frame rate                               : 43.066 FPS (1024 spf)
Compression mode                         : Lossy
Delay relative to video                  : -46 ms
Stream size                              : 32.6 MiB (12%)
Language                                 : English
Default                                  : Yes
Forced                                   : No

Audio #2
ID                                       : 3
Format                                   : AAC
Format/Info                              : Advanced Audio Codec
Format profile                           : LC
Codec ID                                 : A_AAC
Duration                                 : 23 min 41 s
Bit rate                                 : 122 kb/s
Channel(s)                               : 2 channels
Channel positions                        : Front: L R
Sampling rate                            : 48.0 kHz
Frame rate                               : 46.875 FPS (1024 spf)
Compression mode                         : Lossy
Delay relative to video                  : -46 ms
Stream size                              : 20.7 MiB (8%)
Language                                 : Japanese
Default                                  : No
Forced                                   : No

Text #1
ID                                       : 4
Format                                   : ASS
Codec ID                                 : S_TEXT/ASS
Codec ID/Info                            : Advanced Sub Station Alpha
Duration                                 : 21 min 59 s
Bit rate                                 : 349 b/s
Count of elements                        : 53
Compression mode                         : Lossless
Stream size                              : 56.3 KiB (0%)
Title                                    : Signs & Songs
Language                                 : English
Default                                  : Yes
Forced                                   : No

Text #2
ID                                       : 5
Format                                   : ASS
Codec ID                                 : S_TEXT/ASS
Codec ID/Info                            : Advanced Sub Station Alpha
Duration                                 : 23 min 38 s
Bit rate                                 : 465 b/s
Count of elements                        : 460
Compression mode                         : Lossless
Stream size                              : 80.5 KiB (0%)
Title                                    : Full
Language                                 : English
Default                                  : No
Forced                                   : Yes

Menu
00:00:00.000                             : en:Chapter 01
00:01:26.503                             : en:Chapter 02
00:02:56.551                             : en:Chapter 03
00:13:28.558                             : en:Chapter 04
00:18:21.809                             : en:Chapter 05
00:20:31.689                             : en:Chapter 06
00:23:30.534                             : en:Chapter 07
00:23:42.421                             : en:Chapter 08

Other Files in this Torrent
Made in Abyss 1x03.mkv
beta
Anime DDL+NZB mirror
Current Time: 12/07/2024 23:34



About/FAQs

Discord