File Size266.5 MB (279,433,041 bytes)
DownloadClickNUpload | Go4Up | Jheberg | MultiUp | OpenLoad | Sendspace | SolidFiles | ZippyShare
HashesCRC32: 2DC466FF, MD5: C20659251E0E9BBE8C1011C16F6FF777, SHA1: A8EDC8DF70E69C825E54BC9BE23DF4432B1BD6A2, SHA256: 3346D8BEBF1715C56A56ACF942F40CC27E971B00F966C6616BB5924C35B720E1, ED2K: C9BF910CEFFAC2AAB5416530832ED6A2
Screenshots
screenshotscreenshotscreenshotscreenshotscreenshot
SubtitlesAll Attachments | Signs& Songs [eng, ASS], Full [eng, ASS]
Additional Info
General
Unique ID                                : 5910353037085590205106745640586356144 (0x4724AE726F51B22D110650E914CA5B0)
Complete name                            : Made in Abyss 1x08.mkv
Format                                   : Matroska
Format version                           : Version 4 / Version 2
File size                                : 266 MiB
Duration                                 : 24 min 43 s
Overall bit rate mode                    : Variable
Overall bit rate                         : 1 507 kb/s
Encoded date                             : UTC 2018-10-24 20:30:11
Writing application                      : mkvmerge v20.0.0 ('I Am The Sun') 64-bit
Writing library                          : libebml v1.3.5 + libmatroska v1.4.8
Attachments                              : Barmeno-Roman.ttf / LT.ttf / LTFinnegan MediumItalic.ttf / maagkramp.ttf / playtime.ttf / Qlassik_TB.otf / Remains.ttf

Video
ID                                       : 1
Format                                   : AVC
Format/Info                              : Advanced Video Codec
Format profile                           : High@L3.1
Format settings, CABAC                   : Yes
Format settings, ReFrames                : 2 frames
Codec ID                                 : V_MPEG4/ISO/AVC
Duration                                 : 24 min 43 s
Bit rate mode                            : Variable
Bit rate                                 : 1 231 kb/s
Maximum bit rate                         : 1 750 kb/s
Width                                    : 1 280 pixels
Height                                   : 720 pixels
Display aspect ratio                     : 16:9
Frame rate mode                          : Constant
Frame rate                               : 24.000 FPS
Color space                              : YUV
Chroma subsampling                       : 4:2:0
Bit depth                                : 8 bits
Scan type                                : Progressive
Bits/(Pixel*Frame)                       : 0.056
Stream size                              : 218 MiB (82%)
Default                                  : Yes
Forced                                   : No

Audio #1
ID                                       : 2
Format                                   : AAC
Format/Info                              : Advanced Audio Codec
Format profile                           : LC
Codec ID                                 : A_AAC
Duration                                 : 23 min 43 s
Bit rate                                 : 154 kb/s
Channel(s)                               : 2 channels
Channel positions                        : Front: L R
Sampling rate                            : 44.1 kHz
Frame rate                               : 43.066 FPS (1024 spf)
Compression mode                         : Lossy
Delay relative to video                  : -46 ms
Stream size                              : 26.1 MiB (10%)
Language                                 : English
Default                                  : Yes
Forced                                   : No

Audio #2
ID                                       : 3
Format                                   : AAC
Format/Info                              : Advanced Audio Codec
Format profile                           : LC
Codec ID                                 : A_AAC
Duration                                 : 23 min 41 s
Bit rate                                 : 128 kb/s
Channel(s)                               : 2 channels
Channel positions                        : Front: L R
Sampling rate                            : 48.0 kHz
Frame rate                               : 46.875 FPS (1024 spf)
Compression mode                         : Lossy
Delay relative to video                  : -31 ms
Stream size                              : 21.7 MiB (8%)
Language                                 : Japanese
Default                                  : No
Forced                                   : No

Text #1
ID                                       : 4
Format                                   : ASS
Codec ID                                 : S_TEXT/ASS
Codec ID/Info                            : Advanced Sub Station Alpha
Duration                                 : 21 min 38 s
Bit rate                                 : 364 b/s
Count of elements                        : 73
Compression mode                         : Lossless
Stream size                              : 57.7 KiB (0%)
Title                                    : Signs& Songs
Language                                 : English
Default                                  : Yes
Forced                                   : No

Text #2
ID                                       : 5
Format                                   : ASS
Codec ID                                 : S_TEXT/ASS
Codec ID/Info                            : Advanced Sub Station Alpha
Duration                                 : 23 min 35 s
Bit rate                                 : 435 b/s
Count of elements                        : 352
Compression mode                         : Lossless
Stream size                              : 75.3 KiB (0%)
Title                                    : Full
Language                                 : English
Default                                  : No
Forced                                   : Yes

Menu
00:00:00.000                             : en:Chapter 01
00:01:47.983                             : en:Chapter 02
00:03:17.698                             : en:Chapter 03
00:09:41.748                             : en:Chapter 04
00:22:00.694                             : en:Chapter 05
00:23:30.701                             : en:Chapter 06
00:23:42.421                             : en:Chapter 07

Other Files in this Torrent
Made in Abyss 1x08.mkv
beta
Anime DDL+NZB mirror
Current Time: 21/06/2024 23:46



About/FAQs

Discord