File Size352.9 MB (370,007,635 bytes)
DownloadClickNUpload | Go4Up | Jheberg | MultiUp | OpenLoad | SolidFiles | ZippyShare
Sendspace: Part1, Part2
HashesCRC32: F23140B5, MD5: 9452293940D0AB41B7D62E7D040F2AB2, SHA1: 4FAA9F6086A68AB40BCCC4660958BBE6FAB6F69D, SHA256: 265B4341277AF76DE17D2728818A2E7A4F521219909FBA1B6DED030C6EEFACEE, ED2K: 32F7175F744CF1CDEBA387EA6A39ECAC
Screenshots
screenshotscreenshotscreenshotscreenshotscreenshot
SubtitlesAll Attachments | Signs & Songs [eng, ASS], Full [eng, ASS]
Additional Info
General
Unique ID                                : 207565834794023012318903736892994791922 (0x9C27B9C541D08011C13696C26216A9F2)
Complete name                            : Made in Abyss 1x05.mkv
Format                                   : Matroska
Format version                           : Version 4 / Version 2
File size                                : 353 MiB
Duration                                 : 24 min 43 s
Overall bit rate                         : 1 995 kb/s
Encoded date                             : UTC 2018-10-24 20:06:04
Writing application                      : mkvmerge v20.0.0 ('I Am The Sun') 64-bit
Writing library                          : libebml v1.3.5 + libmatroska v1.4.8
Attachments                              : Barmeno-Roman.ttf / LT.ttf / LTFinnegan MediumItalic.ttf / maagkramp.ttf / playtime.ttf / Qlassik_TB.otf / Remains.ttf

Video
ID                                       : 1
Format                                   : AVC
Format/Info                              : Advanced Video Codec
Format profile                           : Main@L5
Format settings, CABAC                   : Yes
Format settings, ReFrames                : 8 frames
Format settings, GOP                     : M=4, N=50
Codec ID                                 : V_MPEG4/ISO/AVC
Duration                                 : 24 min 43 s
Bit rate                                 : 1 680 kb/s
Width                                    : 1 920 pixels
Height                                   : 1 080 pixels
Display aspect ratio                     : 16:9
Frame rate mode                          : Constant
Frame rate                               : 24.000 FPS
Color space                              : YUV
Chroma subsampling                       : 4:2:0
Bit depth                                : 8 bits
Scan type                                : Progressive
Bits/(Pixel*Frame)                       : 0.034
Stream size                              : 297 MiB (84%)
Default                                  : Yes
Forced                                   : No

Audio #1
ID                                       : 2
Format                                   : AAC
Format/Info                              : Advanced Audio Codec
Format profile                           : LC
Codec ID                                 : A_AAC
Duration                                 : 23 min 43 s
Bit rate                                 : 192 kb/s
Channel(s)                               : 2 channels
Channel positions                        : Front: L R
Sampling rate                            : 44.1 kHz
Frame rate                               : 43.066 FPS (1024 spf)
Compression mode                         : Lossy
Delay relative to video                  : -46 ms
Stream size                              : 32.6 MiB (9%)
Language                                 : English
Default                                  : Yes
Forced                                   : No

Audio #2
ID                                       : 3
Format                                   : AAC
Format/Info                              : Advanced Audio Codec
Format profile                           : LC
Codec ID                                 : A_AAC
Duration                                 : 23 min 42 s
Bit rate                                 : 132 kb/s
Channel(s)                               : 2 channels
Channel positions                        : Front: L R
Sampling rate                            : 48.0 kHz
Frame rate                               : 46.875 FPS (1024 spf)
Compression mode                         : Lossy
Delay relative to video                  : -37 ms
Stream size                              : 22.1 MiB (6%)
Language                                 : Japanese
Default                                  : No
Forced                                   : No

Text #1
ID                                       : 4
Format                                   : ASS
Codec ID                                 : S_TEXT/ASS
Codec ID/Info                            : Advanced Sub Station Alpha
Duration                                 : 19 min 19 s
Bit rate                                 : 406 b/s
Count of elements                        : 69
Compression mode                         : Lossless
Stream size                              : 57.5 KiB (0%)
Title                                    : Signs & Songs
Language                                 : English
Default                                  : Yes
Forced                                   : No

Text #2
ID                                       : 5
Format                                   : ASS
Codec ID                                 : S_TEXT/ASS
Codec ID/Info                            : Advanced Sub Station Alpha
Duration                                 : 23 min 17 s
Bit rate                                 : 427 b/s
Count of elements                        : 359
Compression mode                         : Lossless
Stream size                              : 72.9 KiB (0%)
Title                                    : Full
Language                                 : English
Default                                  : No
Forced                                   : Yes

Menu
00:00:00.000                             : en:Chapter 01
00:04:06.788                             : en:Chapter 02
00:05:36.962                             : en:Chapter 03
00:11:01.953                             : en:Chapter 04
00:22:00.945                             : en:Chapter 05
00:23:30.951                             : en:Chapter 06
00:23:42.421                             : en:Chapter 07

Other Files in this Torrent
Made in Abyss 1x05.mkv
beta
Anime DDL+NZB mirror
Current Time: 21/06/2024 23:12



About/FAQs

Discord