File Size278.0 MB (291,542,022 bytes)
DownloadClickNUpload | Go4Up | Jheberg | MultiUp | OpenLoad | Sendspace | SolidFiles | ZippyShare
HashesCRC32: 9ADE3C5E, MD5: D05449FB5C9710FE1DB8F13D2F3A30B1, SHA1: 1843D557D0ED4D6E7DECFE1181E1185244A7E6B6, SHA256: 63DEDF624D0AFFB8BE59AEC0D57095263A5CFDFA8E214C5CF90FC474E17CF702, ED2K: D896DBB9A4A93C486A5BA8D0152968A4
Screenshots
screenshotscreenshotscreenshotscreenshotscreenshot
SubtitlesAll Attachments | Signs & Songs [eng, ASS], Full [eng, ASS]
Additional Info
General
Unique ID                                : 152624096156355163922055363517199329901 (0x72D254EA70660FAB66623D349936AA6D)
Complete name                            : Made in Abyss 1x04.mkv
Format                                   : Matroska
Format version                           : Version 4 / Version 2
File size                                : 278 MiB
Duration                                 : 24 min 43 s
Overall bit rate mode                    : Variable
Overall bit rate                         : 1 572 kb/s
Encoded date                             : UTC 2018-10-24 20:49:06
Writing application                      : mkvmerge v20.0.0 ('I Am The Sun') 64-bit
Writing library                          : libebml v1.3.5 + libmatroska v1.4.8
Attachments                              : Barmeno-Roman.ttf / LT.ttf / LTFinnegan MediumItalic.ttf / maagkramp.ttf / playtime.ttf / Qlassik_TB.otf / Remains.ttf

Video
ID                                       : 1
Format                                   : AVC
Format/Info                              : Advanced Video Codec
Format profile                           : High@L3.1
Format settings, CABAC                   : Yes
Format settings, ReFrames                : 2 frames
Codec ID                                 : V_MPEG4/ISO/AVC
Duration                                 : 24 min 43 s
Bit rate mode                            : Variable
Bit rate                                 : 1 299 kb/s
Maximum bit rate                         : 1 750 kb/s
Width                                    : 1 280 pixels
Height                                   : 720 pixels
Display aspect ratio                     : 16:9
Frame rate mode                          : Constant
Frame rate                               : 24.000 FPS
Color space                              : YUV
Chroma subsampling                       : 4:2:0
Bit depth                                : 8 bits
Scan type                                : Progressive
Bits/(Pixel*Frame)                       : 0.059
Stream size                              : 230 MiB (83%)
Default                                  : Yes
Forced                                   : No

Audio #1
ID                                       : 2
Format                                   : AAC
Format/Info                              : Advanced Audio Codec
Format profile                           : LC
Codec ID                                 : A_AAC
Duration                                 : 23 min 43 s
Bit rate                                 : 154 kb/s
Channel(s)                               : 2 channels
Channel positions                        : Front: L R
Sampling rate                            : 44.1 kHz
Frame rate                               : 43.066 FPS (1024 spf)
Compression mode                         : Lossy
Delay relative to video                  : -46 ms
Stream size                              : 26.1 MiB (9%)
Language                                 : English
Default                                  : Yes
Forced                                   : No

Audio #2
ID                                       : 3
Format                                   : AAC
Format/Info                              : Advanced Audio Codec
Format profile                           : LC
Codec ID                                 : A_AAC
Duration                                 : 23 min 41 s
Bit rate                                 : 125 kb/s
Channel(s)                               : 2 channels
Channel positions                        : Front: L R
Sampling rate                            : 48.0 kHz
Frame rate                               : 46.875 FPS (1024 spf)
Compression mode                         : Lossy
Delay relative to video                  : -31 ms
Stream size                              : 21.1 MiB (8%)
Language                                 : Japanese
Default                                  : No
Forced                                   : No

Text #1
ID                                       : 4
Format                                   : ASS
Codec ID                                 : S_TEXT/ASS
Codec ID/Info                            : Advanced Sub Station Alpha
Duration                                 : 22 min 45 s
Bit rate                                 : 347 b/s
Count of elements                        : 76
Compression mode                         : Lossless
Stream size                              : 57.9 KiB (0%)
Title                                    : Signs & Songs
Language                                 : English
Default                                  : Yes
Forced                                   : No

Text #2
ID                                       : 5
Format                                   : ASS
Codec ID                                 : S_TEXT/ASS
Codec ID/Info                            : Advanced Sub Station Alpha
Duration                                 : 23 min 38 s
Bit rate                                 : 435 b/s
Count of elements                        : 383
Compression mode                         : Lossless
Stream size                              : 75.3 KiB (0%)
Title                                    : Full
Language                                 : English
Default                                  : No
Forced                                   : Yes

Menu
00:00:00.000                             : en:Chapter 01
00:00:40.374                             : en:Chapter 02
00:02:10.547                             : en:Chapter 03
00:11:37.572                             : en:Chapter 04
00:22:00.528                             : en:Chapter 05
00:23:30.534                             : en:Chapter 06
00:23:42.421                             : en:Chapter 07

Other Files in this Torrent
Made in Abyss 1x04.mkv
beta
Anime DDL+NZB mirror
Current Time: 21/06/2024 23:47



About/FAQs

Discord