File Size121.3 MB (127,179,161 bytes)
DownloadAnonFiles | ClickNUpload | DownloadGG | MultiUp
  • BdUpload
  • DownAce
  • Fichier
  • FileCloud
  • Filerio
  • FilesCdn
  • IndiShare
  • Kbagi
  • Turbobit
  • UpToBox
  • Uppit
| ZippyShare
HashesCRC32: CDB357AD, MD5: 1FD31626EB11FA0A7B25381451A2D044, SHA1: 5B893696690CE64CC4C1188121961A8D0406535B, SHA256: A29ACEA5FB3A26C7E6524C42EC0A18FB7F9364E2940F9FDF517F40E76F35E984, ED2K: 1D184A3A02FCB14D9D7E0FB2E57CFEE5
Screenshots
screenshotscreenshotscreenshotscreenshotscreenshot
SubtitlesAll Attachments | eng [ASS]
Additional Info
General
Unique ID                                : 291474043421452802266982758394090017231 (0xDB47DBDBDEB91D8CA094BFE35EECD1CF)
Complete name                            : Kino no Tabi - 11 - Her Journey.mkv
Format                                   : Matroska
Format version                           : Version 4
File size                                : 121 MiB
Duration                                 : 24 min 22 s
Overall bit rate                         : 696 kb/s
Encoded date                             : UTC 2022-03-31 09:19:15
Writing application                      : mkvmerge v62.0.0 ('Apollo') 64-bit
Writing library                          : libebml v1.4.2 + libmatroska v1.6.4
Attachments                              : corbelb.ttf / CUSHNGH.TTF / RuzickaTypeK.ttf / segoeprb.ttf / corbel.ttf
ENCODER_SETTINGS                         : version:3.2.0-356-gf4360277b --webm --passes=2 --threads=4 --good --cpu-used=2 --tile-columns=1 --row-mt=1 --end-usage=q -b 10 --enable-keyframe-filtering=0 --lag-in-frames=48 --auto-alt-ref=1 --arnr-strength=0 --arnr-maxframes=0 --color-primaries=bt601 --transfer-characteristics=bt601 --matrix-coefficients=bt601 --sharpness=7 --frame-boost=1 --enable-fwd-kf=1 --quant-b-adapt=1 --qm-min=3 --enable-qm=1 --tune=ssim --enable-dnl-denoising=0 --denoise-noise-level=12 --deltaq-mode=0 --max-partition-size=64 --cq-level=11 --pass=2 --fpf=gop/08/segment_293.log

Video
ID                                       : 1
Format                                   : AV1
Format/Info                              : AOMedia Video 1
Format profile                           : Main@L3.0
Codec ID                                 : V_AV1
Duration                                 : 24 min 22 s
Bit rate                                 : 594 kb/s
Width                                    : 854 pixels
Height                                   : 480 pixels
Display aspect ratio                     : 16:9
Frame rate mode                          : Constant
Frame rate                               : 23.976 (24000/1001) FPS
Color space                              : YUV
Chroma subsampling                       : 4:2:0
Bit depth                                : 10 bits
Bits/(Pixel*Frame)                       : 0.060
Stream size                              : 104 MiB (85%)
Language                                 : English
Default                                  : Yes
Forced                                   : No
Color range                              : Limited
Color primaries                          : BT.601 NTSC
Transfer characteristics                 : BT.601
Matrix coefficients                      : BT.601

Audio
ID                                       : 2
Format                                   : Opus
Codec ID                                 : A_OPUS
Duration                                 : 24 min 22 s
Bit rate                                 : 93.1 kb/s
Channel(s)                               : 2 channels
Channel layout                           : L R
Sampling rate                            : 48.0 kHz
Frame rate                               : 50.000 FPS (960 SPF)
Compression mode                         : Lossy
Stream size                              : 16.2 MiB (13%)
Writing library                          : Lavc58.65.100 libopus
Language                                 : Japanese
Default                                  : Yes
Forced                                   : No

Text
ID                                       : 3
Format                                   : ASS
Codec ID                                 : S_TEXT/ASS
Codec ID/Info                            : Advanced Sub Station Alpha
Duration                                 : 24 min 11 s
Bit rate                                 : 140 b/s
Count of elements                        : 398
Compression mode                         : Lossless
Stream size                              : 24.8 KiB (0%)
Language                                 : English
Default                                  : Yes
Forced                                   : No

Menu
00:00:00.000                             : :Opening
00:01:30.048                             : :Part A
00:11:08.084                             : :Part B
00:22:30.099                             : :Ending
00:23:50.095                             : :Preview

Other Files in this Torrent
Kino no Tabi - 11 - Her Journey.mkv
beta
Anime DDL+NZB mirror
Current Time: 14/07/2024 16:46



About/FAQs

Discord