File Size93.47 MB (98,013,028 bytes)
DownloadAnonFiles | ClickNUpload | DownloadGG | MultiUp
  • BdUpload
  • DownAce
  • Fichier
  • FileCloud
  • Filerio
  • FilesCdn
  • IndiShare
  • Kbagi
  • Turbobit
  • UpToBox
  • Uppit
| ZippyShare
HashesCRC32: B7392957, MD5: B3F07E053038969D94EACB50F059D249, SHA1: BAE3CF8EA7E426251FEB789007E3D8EEEA8659AA, SHA256: 8A562AB573A5A8E40568041C1CE7D830D448AA318BD73AD6D4DAB43EF007C075, ED2K: 4EEF09EAE6365F5BCC8AF455D75AF132
Screenshots
screenshotscreenshotscreenshotscreenshotscreenshot
SubtitlesAll Attachments | eng [ASS]
Additional Info
General
Unique ID                                : 339172476063927933314570383102329066193 (0xFF2A3E27E6C7065AAC2F9ED69CFD92D1)
Complete name                            : Kino no Tabi - 02 - A Tale of Feeding Off Others.mkv
Format                                   : Matroska
Format version                           : Version 4
File size                                : 93.5 MiB
Duration                                 : 24 min 22 s
Overall bit rate                         : 536 kb/s
Encoded date                             : UTC 2022-03-30 12:07:13
Writing application                      : mkvmerge v62.0.0 ('Apollo') 64-bit
Writing library                          : libebml v1.4.2 + libmatroska v1.6.4
Attachments                              : CUSHNGH.TTF / RuzickaTypeK.ttf / segoeprb.ttf / corbel.ttf / corbelb.ttf
ENCODER_SETTINGS                         : version:3.2.0-356-gf4360277b --webm --passes=2 --threads=4 --good --cpu-used=2 --tile-columns=1 --row-mt=1 --end-usage=q -b 10 --enable-keyframe-filtering=0 --lag-in-frames=48 --auto-alt-ref=1 --arnr-strength=0 --arnr-maxframes=0 --color-primaries=bt601 --transfer-characteristics=bt601 --matrix-coefficients=bt601 --sharpness=7 --frame-boost=1 --enable-fwd-kf=1 --quant-b-adapt=1 --qm-min=3 --enable-qm=1 --tune=ssim --enable-dnl-denoising=0 --denoise-noise-level=12 --deltaq-mode=0 --max-partition-size=64 --cq-level=11 --pass=2 --fpf=gop/02/segment_339.log

Video
ID                                       : 1
Format                                   : AV1
Format/Info                              : AOMedia Video 1
Format profile                           : Main@L3.0
Codec ID                                 : V_AV1
Duration                                 : 24 min 22 s
Bit rate                                 : 439 kb/s
Width                                    : 854 pixels
Height                                   : 480 pixels
Display aspect ratio                     : 16:9
Frame rate mode                          : Constant
Frame rate                               : 23.976 (24000/1001) FPS
Color space                              : YUV
Chroma subsampling                       : 4:2:0
Bit depth                                : 10 bits
Bits/(Pixel*Frame)                       : 0.045
Stream size                              : 76.6 MiB (82%)
Default                                  : Yes
Forced                                   : No
Color range                              : Limited
Color primaries                          : BT.601 NTSC
Transfer characteristics                 : BT.601
Matrix coefficients                      : BT.601

Audio
ID                                       : 2
Format                                   : Opus
Codec ID                                 : A_OPUS
Duration                                 : 24 min 22 s
Bit rate                                 : 88.1 kb/s
Channel(s)                               : 2 channels
Channel layout                           : L R
Sampling rate                            : 48.0 kHz
Frame rate                               : 50.000 FPS (960 SPF)
Compression mode                         : Lossy
Stream size                              : 15.4 MiB (16%)
Title                                    : Japanese 2.0 | Opus 96
Writing library                          : Lavc58.65.100 libopus
Language                                 : Japanese
Default                                  : Yes
Forced                                   : No

Text
ID                                       : 3
Format                                   : ASS
Codec ID                                 : S_TEXT/ASS
Codec ID/Info                            : Advanced Sub Station Alpha
Duration                                 : 24 min 12 s
Bit rate                                 : 106 b/s
Count of elements                        : 298
Compression mode                         : Lossless
Stream size                              : 19.0 KiB (0%)
Language                                 : English
Default                                  : Yes
Forced                                   : No

Menu
00:00:00.000                             : :Opening
00:01:30.048                             : :Part A
00:11:13.047                             : :Part B
00:22:30.057                             : :Ending
00:23:50.095                             : :Preview

Other Files in this Torrent
Kino no Tabi - 02 - A Tale of Feeding Off Others.mkv
beta
Anime DDL+NZB mirror
Current Time: 14/07/2024 17:13



About/FAQs

Discord