File Size103.2 MB (108,197,032 bytes)
DownloadAnonFiles | ClickNUpload | DownloadGG | MultiUp
  • BdUpload
  • DownAce
  • Fichier
  • FileCloud
  • Filerio
  • FilesCdn
  • IndiShare
  • Kbagi
  • Turbobit
  • UpToBox
  • Uppit
| ZippyShare
HashesCRC32: 939E0652, MD5: 82C773C9FF1302595AB5CADE321DCA8A, SHA1: D664C83DB71B4B892D90476FFEA0C7C2E09DA9CD, SHA256: F68704E054758B47B162923F95A913F222A4F3943F53781340B90671B2B3D938, ED2K: 1F299614FBC9FF4B63CFD5D0FBAE2F94
Screenshots
screenshotscreenshotscreenshotscreenshotscreenshot
SubtitlesAll Attachments | eng [ASS]
Additional Info
General
Unique ID                                : 137743002285778597833671216757207648548 (0x67A05657894B6E864800247D862AC924)
Complete name                            : Kino no Tabi - 09 - Land of Books.mkv
Format                                   : Matroska
Format version                           : Version 4
File size                                : 103 MiB
Duration                                 : 24 min 22 s
Overall bit rate                         : 592 kb/s
Encoded date                             : UTC 2022-03-31 09:19:15
Writing application                      : mkvmerge v62.0.0 ('Apollo') 64-bit
Writing library                          : libebml v1.4.2 + libmatroska v1.6.4
Attachments                              : RuzickaTypeK.ttf / segoeprb.ttf / corbel.ttf / corbelb.ttf / CUSHNGH.TTF
ENCODER_SETTINGS                         : version:3.2.0-356-gf4360277b --webm --passes=2 --threads=4 --good --cpu-used=2 --tile-columns=1 --row-mt=1 --end-usage=q -b 10 --enable-keyframe-filtering=0 --lag-in-frames=48 --auto-alt-ref=1 --arnr-strength=0 --arnr-maxframes=0 --color-primaries=bt601 --transfer-characteristics=bt601 --matrix-coefficients=bt601 --sharpness=7 --frame-boost=1 --enable-fwd-kf=1 --quant-b-adapt=1 --qm-min=3 --enable-qm=1 --tune=ssim --enable-dnl-denoising=0 --denoise-noise-level=12 --deltaq-mode=0 --max-partition-size=64 --cq-level=11 --pass=2 --fpf=gop/07/segment_293.log

Video
ID                                       : 1
Format                                   : AV1
Format/Info                              : AOMedia Video 1
Format profile                           : Main@L3.0
Codec ID                                 : V_AV1
Duration                                 : 24 min 22 s
Bit rate                                 : 489 kb/s
Width                                    : 854 pixels
Height                                   : 480 pixels
Display aspect ratio                     : 16:9
Frame rate mode                          : Constant
Frame rate                               : 23.976 (24000/1001) FPS
Color space                              : YUV
Chroma subsampling                       : 4:2:0
Bit depth                                : 10 bits
Bits/(Pixel*Frame)                       : 0.050
Stream size                              : 85.3 MiB (83%)
Language                                 : English
Default                                  : Yes
Forced                                   : No
Color range                              : Limited
Color primaries                          : BT.601 NTSC
Transfer characteristics                 : BT.601
Matrix coefficients                      : BT.601

Audio
ID                                       : 2
Format                                   : Opus
Codec ID                                 : A_OPUS
Duration                                 : 24 min 22 s
Bit rate                                 : 93.9 kb/s
Channel(s)                               : 2 channels
Channel layout                           : L R
Sampling rate                            : 48.0 kHz
Frame rate                               : 50.000 FPS (960 SPF)
Compression mode                         : Lossy
Stream size                              : 16.4 MiB (16%)
Writing library                          : Lavc58.65.100 libopus
Language                                 : Japanese
Default                                  : Yes
Forced                                   : No

Text
ID                                       : 3
Format                                   : ASS
Codec ID                                 : S_TEXT/ASS
Codec ID/Info                            : Advanced Sub Station Alpha
Duration                                 : 24 min 12 s
Bit rate                                 : 153 b/s
Count of elements                        : 453
Compression mode                         : Lossless
Stream size                              : 27.3 KiB (0%)
Language                                 : English
Default                                  : Yes
Forced                                   : No

Menu
00:00:00.000                             : :Opening
00:01:30.048                             : :Part A
00:13:03.070                             : :Part B
00:22:30.099                             : :Ending
00:23:50.095                             : :Preview

Other Files in this Torrent
Kino no Tabi - 09 - Land of Books.mkv
beta
Anime DDL+NZB mirror
Current Time: 18/06/2024 15:04



About/FAQs

Discord