File Size123.4 MB (129,411,258 bytes)
DownloadAnonFiles | ClickNUpload | DownloadGG | MultiUp
  • BdUpload
  • DownAce
  • Fichier
  • FileCloud
  • Filerio
  • FilesCdn
  • IndiShare
  • Kbagi
  • Turbobit
  • UpToBox
  • Uppit
| ZippyShare
HashesCRC32: F18FDEE5, MD5: 616AE0FC748F2EC575B003E30BDE33BF, SHA1: 589CA996AED1914CCD8495B1B219C9AD8771DCDA, SHA256: 3F536211F99B528ECAFB70C81C6D34977493B8FB8E4BA1C3B2644AEE671936E5, ED2K: E68A49C9278003D35CD136516B8F0EEC
Screenshots
screenshotscreenshotscreenshotscreenshotscreenshot
SubtitlesAll Attachments | Full Subtitles | KAA [eng, ASS]
Additional Info
General
Unique ID                                : 318553281626625675841367780853649298494 (0xEFA72161AE815CD9C6CA4D576958D43E)
Complete name                            : Kino no Tabi - 05 - Three Men Along the Rails.mkv
Format                                   : Matroska
Format version                           : Version 4
File size                                : 123 MiB
Duration                                 : 24 min 22 s
Overall bit rate                         : 708 kb/s
Encoded date                             : UTC 2022-03-29 10:06:49
Writing application                      : mkvmerge v62.0.0 ('Apollo') 64-bit
Writing library                          : libebml v1.4.2 + libmatroska v1.6.4
Attachments                              : CUSHNGH.TTF / RuzickaTypeK.ttf / segoeprb.ttf / corbel.ttf / corbelb.ttf
ENCODER_SETTINGS                         : version:3.2.0-356-gf4360277b --webm --passes=2 --threads=4 --good --cpu-used=2 --tile-columns=1 --row-mt=1 --end-usage=q -b 10 --enable-keyframe-filtering=0 --lag-in-frames=48 --auto-alt-ref=1 --arnr-strength=0 --arnr-maxframes=0 --color-primaries=bt601 --transfer-characteristics=bt601 --matrix-coefficients=bt601 --sharpness=7 --frame-boost=1 --enable-fwd-kf=1 --quant-b-adapt=1 --qm-min=3 --enable-qm=1 --tune=ssim --enable-dnl-denoising=0 --denoise-noise-level=12 --deltaq-mode=0 --max-partition-size=64 --cq-level=11 --pass=2 --fpf=gop/05/segment_316.log

Video
ID                                       : 1
Format                                   : AV1
Format/Info                              : AOMedia Video 1
Format profile                           : Main@L3.0
Codec ID                                 : V_AV1
Duration                                 : 24 min 22 s
Bit rate                                 : 605 kb/s
Width                                    : 854 pixels
Height                                   : 480 pixels
Display aspect ratio                     : 16:9
Frame rate mode                          : Constant
Frame rate                               : 23.976 (24000/1001) FPS
Color space                              : YUV
Chroma subsampling                       : 4:2:0
Bit depth                                : 10 bits
Bits/(Pixel*Frame)                       : 0.062
Stream size                              : 105 MiB (85%)
Language                                 : English
Default                                  : Yes
Forced                                   : No
Color range                              : Limited
Color primaries                          : BT.601 NTSC
Transfer characteristics                 : BT.601
Matrix coefficients                      : BT.601

Audio
ID                                       : 2
Format                                   : Opus
Codec ID                                 : A_OPUS
Duration                                 : 24 min 22 s
Bit rate                                 : 94.6 kb/s
Channel(s)                               : 2 channels
Channel layout                           : L R
Sampling rate                            : 48.0 kHz
Frame rate                               : 50.000 FPS (960 SPF)
Compression mode                         : Lossy
Stream size                              : 16.5 MiB (13%)
Writing library                          : Lavc58.65.100 libopus
Language                                 : Japanese
Default                                  : Yes
Forced                                   : No

Text
ID                                       : 3
Format                                   : ASS
Codec ID                                 : S_TEXT/ASS
Codec ID/Info                            : Advanced Sub Station Alpha
Duration                                 : 24 min 12 s
Bit rate                                 : 148 b/s
Count of elements                        : 427
Compression mode                         : Lossless
Stream size                              : 26.4 KiB (0%)
Title                                    : Full Subtitles | KAA
Language                                 : English
Default                                  : Yes
Forced                                   : No

Menu
00:00:00.000                             : :Opening
00:01:30.048                             : :Part A
00:11:13.089                             : :Part B
00:22:30.099                             : :Ending
00:23:50.095                             : :Preview

Other Files in this Torrent
Kino no Tabi - 05 - Three Men Along the Rails.mkv
beta
Anime DDL+NZB mirror
Current Time: 14/07/2024 17:11



About/FAQs

Discord