File Size98.53 MB (103,315,594 bytes)
DownloadAnonFiles | ClickNUpload | DownloadGG | MultiUp
  • BdUpload
  • DownAce
  • Fichier
  • FileCloud
  • Filerio
  • FilesCdn
  • IndiShare
  • Kbagi
  • Turbobit
  • UpToBox
  • Uppit
| ZippyShare
HashesCRC32: 9C5C641F, MD5: FFDA02BE17197E767DBC68E5952250E7, SHA1: 4CD8E5BFDDB63F40E194E7F68BBE124784DAE7B4, SHA256: E88A37F7A0863D7FFB693274B3DEC98ABB015AA566441E702E97CF8D0628D078, ED2K: 2C11E0963A2922B77054960E61396CF4
Screenshots
screenshotscreenshotscreenshotscreenshotscreenshot
SubtitlesAll Attachments | eng [ASS]
Additional Info
General
Unique ID                                : 204888309581631801764551488323242144178 (0x9A240D95DA30902DC7591F1C04AFB1B2)
Complete name                            : Kino no Tabi - 03 - Land of Prophecies.mkv
Format                                   : Matroska
Format version                           : Version 4
File size                                : 98.5 MiB
Duration                                 : 24 min 22 s
Overall bit rate                         : 565 kb/s
Encoded date                             : UTC 2022-03-30 12:07:15
Writing application                      : mkvmerge v62.0.0 ('Apollo') 64-bit
Writing library                          : libebml v1.4.2 + libmatroska v1.6.4
Attachments                              : corbelb.ttf / CUSHNGH.TTF / RuzickaTypeK.ttf / segoeprb.ttf / corbel.ttf
ENCODER_SETTINGS                         : version:3.2.0-356-gf4360277b --webm --passes=2 --threads=4 --good --cpu-used=2 --tile-columns=1 --row-mt=1 --end-usage=q -b 10 --enable-keyframe-filtering=0 --lag-in-frames=48 --auto-alt-ref=1 --arnr-strength=0 --arnr-maxframes=0 --color-primaries=bt601 --transfer-characteristics=bt601 --matrix-coefficients=bt601 --sharpness=7 --frame-boost=1 --enable-fwd-kf=1 --quant-b-adapt=1 --qm-min=3 --enable-qm=1 --tune=ssim --enable-dnl-denoising=0 --denoise-noise-level=12 --deltaq-mode=0 --max-partition-size=64 --cq-level=11 --pass=2 --fpf=gop/03/segment_301.log

Video
ID                                       : 1
Format                                   : AV1
Format/Info                              : AOMedia Video 1
Format profile                           : Main@L3.0
Codec ID                                 : V_AV1
Duration                                 : 24 min 22 s
Bit rate                                 : 461 kb/s
Width                                    : 854 pixels
Height                                   : 480 pixels
Display aspect ratio                     : 16:9
Frame rate mode                          : Constant
Frame rate                               : 23.976 (24000/1001) FPS
Color space                              : YUV
Chroma subsampling                       : 4:2:0
Bit depth                                : 10 bits
Bits/(Pixel*Frame)                       : 0.047
Stream size                              : 80.4 MiB (82%)
Language                                 : English
Default                                  : Yes
Forced                                   : No
Color range                              : Limited
Color primaries                          : BT.601 NTSC
Transfer characteristics                 : BT.601
Matrix coefficients                      : BT.601

Audio
ID                                       : 2
Format                                   : Opus
Codec ID                                 : A_OPUS
Duration                                 : 24 min 22 s
Bit rate                                 : 95.3 kb/s
Channel(s)                               : 2 channels
Channel layout                           : L R
Sampling rate                            : 48.0 kHz
Frame rate                               : 50.000 FPS (960 SPF)
Compression mode                         : Lossy
Stream size                              : 16.6 MiB (17%)
Writing library                          : Lavc58.65.100 libopus
Language                                 : Japanese
Default                                  : Yes
Forced                                   : No

Text
ID                                       : 3
Format                                   : ASS
Codec ID                                 : S_TEXT/ASS
Codec ID/Info                            : Advanced Sub Station Alpha
Duration                                 : 24 min 13 s
Bit rate                                 : 153 b/s
Count of elements                        : 404
Compression mode                         : Lossless
Stream size                              : 27.2 KiB (0%)
Language                                 : English
Default                                  : Yes
Forced                                   : No

Menu
00:00:00.000                             : :Opening
00:01:30.048                             : :Part A
00:13:29.058                             : :Part B
00:22:30.099                             : :Ending
00:23:50.095                             : :Preview

Other Files in this Torrent
Kino no Tabi - 03 - Land of Prophecies.mkv
beta
Anime DDL+NZB mirror
Current Time: 14/07/2024 16:17



About/FAQs

Discord