File Size176.3 MB (184,880,617 bytes)
DownloadGo4Up | Jheberg | MultiUp | Sendspace | SolidFiles
Encrypted DownloadDirect
Password:
HashesCRC32: D0467C24, MD5: 130A7EB94402CD5AB422C6B5A04F9F65, SHA1: C9A40AFEA9AD3A498C95EEDF0DBFC446F80E22CB, SHA256: 979922C5848DD8558B8D0AF988A4CF3C01BE92750308737F9BD241EBBC5744F6, ED2K: 1DF6B1AA743BC188A76217739954E853
Screenshots
screenshotscreenshotscreenshotscreenshotscreenshot
Additional Info
General
Complete name                            : [JacobSwaggedUp] Tokyo Ghoul - 10 (BD 1280x720).mp4
Format                                   : MPEG-4
Format profile                           : Base Media
Codec ID                                 : isom
File size                                : 176 MiB
Duration                                 : 24mn 5s
Overall bit rate mode                    : Variable
Overall bit rate                         : 1 023 Kbps
Encoded date                             : UTC 2015-10-31 04:41:07
Tagged date                              : UTC 2015-10-31 04:41:07

Video
ID                                       : 1
Format                                   : AVC
Format/Info                              : Advanced Video Codec
Format profile                           : High@L3.1
Format settings, CABAC                   : Yes
Format settings, ReFrames                : 4 frames
Codec ID                                 : avc1
Codec ID/Info                            : Advanced Video Coding
Duration                                 : 24mn 5s
Bit rate                                 : 759 Kbps
Maximum bit rate                         : 5 209 Kbps
Width                                    : 1 280 pixels
Height                                   : 720 pixels
Display aspect ratio                     : 16:9
Frame rate mode                          : Constant
Frame rate                               : 23.976 fps
Color space                              : YUV
Chroma subsampling                       : 4:2:0
Bit depth                                : 8 bits
Scan type                                : Progressive
Bits/(Pixel*Frame)                       : 0.034
Stream size                              : 131 MiB (74%)
Writing library                          : x264 core 146 r2538 121396c
Encoding settings                        : cabac=1 / ref=2 / deblock=1:0:0 / analyse=0x3:0x113 / me=hex / subme=6 / psy=1 / psy_rd=1.00:0.00 / mixed_ref=1 / me_range=16 / chroma_me=1 / trellis=1 / 8x8dct=1 / cqm=0 / deadzone=21,11 / fast_pskip=1 / chroma_qp_offset=-2 / threads=6 / lookahead_threads=1 / sliced_threads=0 / nr=0 / decimate=1 / interlaced=0 / bluray_compat=0 / constrained_intra=0 / bframes=3 / b_pyramid=2 / b_adapt=1 / b_bias=0 / direct=1 / weightb=1 / open_gop=0 / weightp=1 / keyint=240 / keyint_min=23 / scenecut=40 / intra_refresh=0 / rc_lookahead=30 / rc=crf / mbtree=1 / crf=23.0 / qcomp=0.60 / qpmin=0 / qpmax=69 / qpstep=4 / ip_ratio=1.40 / aq=1:1.00
Encoded date                             : UTC 2015-10-31 04:41:07
Tagged date                              : UTC 2015-10-31 04:41:40

Audio
ID                                       : 2
Format                                   : AAC
Format/Info                              : Advanced Audio Codec
Format profile                           : LC
Codec ID                                 : 40
Duration                                 : 24mn 5s
Bit rate mode                            : Variable
Bit rate                                 : 265 Kbps
Maximum bit rate                         : 415 Kbps
Channel(s)                               : 2 channels
Channel positions                        : Front: L R
Sampling rate                            : 48.0 KHz
Compression mode                         : Lossy
Stream size                              : 44.9 MiB (25%)
Encoded date                             : UTC 2015-10-31 04:17:30
Tagged date                              : UTC 2015-10-31 04:41:40

Menu
00:00:00.000                             : Intro
00:01:03.960                             : OP
00:02:34.000                             : Part A
00:15:19.980                             : Part B
00:22:05.010                             : ED
00:23:34.970                             : Preview

Other Files in this Torrent
[JacobSwaggedUp] Tokyo Ghoul - 10 (BD 1280x720).mp4
beta
Anime DDL+NZB mirror
Current Time: 20/07/2019 12:28



About/FAQs