File Size262.1 MB (274,866,955 bytes)
DownloadGo4Up | Jheberg | MultiUp | Sendspace | SolidFiles
Encrypted DownloadDirect
Password:
HashesCRC32: 27537FBE, MD5: 74D709014F530CC902359E3C46930A04, SHA1: 3C92022F7C4C2496C96B665C3A11A2C6F850B188, SHA256: C4455A5E0B701548C0C3632C709284B5D6BE4388F9A043BDD67168E21ECA1744, ED2K: FFF6D810C59ED28BC5F69E69FB988A80
Screenshots
screenshotscreenshotscreenshotscreenshotscreenshot
Additional Info
General
Complete name                            : [JacobSwaggedUp] Tokyo Ghoul - 08 (BD 1280x720).mp4
Format                                   : MPEG-4
Format profile                           : Base Media
Codec ID                                 : isom
File size                                : 262 MiB
Duration                                 : 24mn 5s
Overall bit rate mode                    : Variable
Overall bit rate                         : 1 522 Kbps
Encoded date                             : UTC 2015-10-31 03:51:27
Tagged date                              : UTC 2015-10-31 03:51:27

Video
ID                                       : 1
Format                                   : AVC
Format/Info                              : Advanced Video Codec
Format profile                           : High@L3.1
Format settings, CABAC                   : Yes
Format settings, ReFrames                : 4 frames
Codec ID                                 : avc1
Codec ID/Info                            : Advanced Video Coding
Duration                                 : 24mn 4s
Bit rate                                 : 1 224 Kbps
Maximum bit rate                         : 7 114 Kbps
Width                                    : 1 280 pixels
Height                                   : 720 pixels
Display aspect ratio                     : 16:9
Frame rate mode                          : Constant
Frame rate                               : 23.976 fps
Color space                              : YUV
Chroma subsampling                       : 4:2:0
Bit depth                                : 8 bits
Scan type                                : Progressive
Bits/(Pixel*Frame)                       : 0.055
Stream size                              : 211 MiB (80%)
Writing library                          : x264 core 146 r2538 121396c
Encoding settings                        : cabac=1 / ref=2 / deblock=1:0:0 / analyse=0x3:0x113 / me=hex / subme=6 / psy=1 / psy_rd=1.00:0.00 / mixed_ref=1 / me_range=16 / chroma_me=1 / trellis=1 / 8x8dct=1 / cqm=0 / deadzone=21,11 / fast_pskip=1 / chroma_qp_offset=-2 / threads=6 / lookahead_threads=1 / sliced_threads=0 / nr=0 / decimate=1 / interlaced=0 / bluray_compat=0 / constrained_intra=0 / bframes=3 / b_pyramid=2 / b_adapt=1 / b_bias=0 / direct=1 / weightb=1 / open_gop=0 / weightp=1 / keyint=240 / keyint_min=23 / scenecut=40 / intra_refresh=0 / rc_lookahead=30 / rc=crf / mbtree=1 / crf=23.0 / qcomp=0.60 / qpmin=0 / qpmax=69 / qpstep=4 / ip_ratio=1.40 / aq=1:1.00
Encoded date                             : UTC 2015-10-31 03:51:27
Tagged date                              : UTC 2015-10-31 03:52:27

Audio
ID                                       : 2
Format                                   : AAC
Format/Info                              : Advanced Audio Codec
Format profile                           : LC
Codec ID                                 : 40
Duration                                 : 24mn 5s
Bit rate mode                            : Variable
Bit rate                                 : 294 Kbps
Maximum bit rate                         : 395 Kbps
Channel(s)                               : 2 channels
Channel positions                        : Front: L R
Sampling rate                            : 48.0 KHz
Compression mode                         : Lossy
Stream size                              : 50.6 MiB (19%)
Encoded date                             : UTC 2015-10-31 03:20:06
Tagged date                              : UTC 2015-10-31 03:52:27

Menu
00:00:00.000                             : Intro
00:01:13.970                             : OP
00:02:44.010                             : Part A
00:11:16.980                             : Part B
00:22:04.460                             : ED
00:23:34.930                             : Preview

Other Files in this Torrent
[JacobSwaggedUp] Tokyo Ghoul - 08 (BD 1280x720).mp4
beta
Anime DDL+NZB mirror
Current Time: 19/10/2019 18:40



About/FAQs