File Size169.4 MB (177,590,827 bytes)
DownloadGo4Up | Jheberg | MultiUp | Sendspace | SolidFiles
Encrypted DownloadDirect
Password:
HashesCRC32: 5076B739, MD5: F5F387FBDDB7A4B46168CCC71E14CBCC, SHA1: 074C300214177BCBB6D78D9823A78DCE96AA375D, SHA256: 0C814725A4AB171E75098521C0309AD32FE5EDF9E09F5A6BE064376B422A8D79, ED2K: 3C5214735769E32E10ACDD256136C258
Screenshots
screenshotscreenshotscreenshotscreenshotscreenshot
Additional Info
General
Complete name                            : [JacobSwaggedUp] Tokyo Ghoul - 03 (BD 1280x720).mp4
Format                                   : MPEG-4
Format profile                           : Base Media
Codec ID                                 : isom
File size                                : 169 MiB
Duration                                 : 24mn 0s
Overall bit rate mode                    : Variable
Overall bit rate                         : 987 Kbps
Encoded date                             : UTC 2015-10-31 01:30:58
Tagged date                              : UTC 2015-10-31 01:30:58

Video
ID                                       : 1
Format                                   : AVC
Format/Info                              : Advanced Video Codec
Format profile                           : High@L3.1
Format settings, CABAC                   : Yes
Format settings, ReFrames                : 4 frames
Codec ID                                 : avc1
Codec ID/Info                            : Advanced Video Coding
Duration                                 : 24mn 0s
Bit rate                                 : 742 Kbps
Maximum bit rate                         : 5 144 Kbps
Width                                    : 1 280 pixels
Height                                   : 720 pixels
Display aspect ratio                     : 16:9
Frame rate mode                          : Constant
Frame rate                               : 23.976 fps
Color space                              : YUV
Chroma subsampling                       : 4:2:0
Bit depth                                : 8 bits
Scan type                                : Progressive
Bits/(Pixel*Frame)                       : 0.034
Stream size                              : 127 MiB (75%)
Writing library                          : x264 core 146 r2538 121396c
Encoding settings                        : cabac=1 / ref=2 / deblock=1:0:0 / analyse=0x3:0x113 / me=hex / subme=6 / psy=1 / psy_rd=1.00:0.00 / mixed_ref=1 / me_range=16 / chroma_me=1 / trellis=1 / 8x8dct=1 / cqm=0 / deadzone=21,11 / fast_pskip=1 / chroma_qp_offset=-2 / threads=6 / lookahead_threads=1 / sliced_threads=0 / nr=0 / decimate=1 / interlaced=0 / bluray_compat=0 / constrained_intra=0 / bframes=3 / b_pyramid=2 / b_adapt=1 / b_bias=0 / direct=1 / weightb=1 / open_gop=0 / weightp=1 / keyint=240 / keyint_min=23 / scenecut=40 / intra_refresh=0 / rc_lookahead=30 / rc=crf / mbtree=1 / crf=23.0 / qcomp=0.60 / qpmin=0 / qpmax=69 / qpstep=4 / ip_ratio=1.40 / aq=1:1.00
Encoded date                             : UTC 2015-10-31 01:30:58
Tagged date                              : UTC 2015-10-31 01:31:08

Audio
ID                                       : 2
Format                                   : AAC
Format/Info                              : Advanced Audio Codec
Format profile                           : LC
Codec ID                                 : 40
Duration                                 : 24mn 0s
Bit rate mode                            : Variable
Bit rate                                 : 241 Kbps
Maximum bit rate                         : 391 Kbps
Channel(s)                               : 2 channels
Channel positions                        : Front: L R
Sampling rate                            : 48.0 KHz
Compression mode                         : Lossy
Stream size                              : 41.3 MiB (24%)
Encoded date                             : UTC 2015-10-31 01:05:27
Tagged date                              : UTC 2015-10-31 01:31:08

Menu
00:00:00.000                             : Intro
00:00:40.010                             : OP
00:02:10.980                             : Part A
00:11:54.980                             : Part B
00:22:00.630                             : ED
00:23:29.970                             : Preview

Other Files in this Torrent
[JacobSwaggedUp] Tokyo Ghoul - 03 (BD 1280x720).mp4
beta
Anime DDL+NZB mirror
Current Time: 13/11/2019 20:51



About/FAQs