File Size211.6 MB (221,925,618 bytes)
DownloadGo4Up | Jheberg | MultiUp | Sendspace | SolidFiles
HashesCRC32: 34A942DA, MD5: A5141091F3DB49234CB81485C25C91FB, SHA1: A86B0BF1CD99D34FD4D95AF1D38A835CD062A280, SHA256: 578AF8B686E1129ABE169C4ACBA1D1C51A73CA2BA494AF068824802BB449FF09, ED2K: A877C6147B3CBCD6D4F1FE3B3034CDF1
Screenshots
screenshotscreenshotscreenshotscreenshotscreenshot
Additional Info
General
Complete name                            : [JacobSwaggedUp] Tokyo Ghoul - 01 (BD 1280x720).mp4
Format                                   : MPEG-4
Format profile                           : Base Media
Codec ID                                 : isom
File size                                : 212 MiB
Duration                                 : 26mn 2s
Overall bit rate mode                    : Variable
Overall bit rate                         : 1 137 Kbps
Encoded date                             : UTC 2015-10-30 23:59:04
Tagged date                              : UTC 2015-10-30 23:59:04

Video
ID                                       : 1
Format                                   : AVC
Format/Info                              : Advanced Video Codec
Format profile                           : High@L3.1
Format settings, CABAC                   : Yes
Format settings, ReFrames                : 4 frames
Codec ID                                 : avc1
Codec ID/Info                            : Advanced Video Coding
Duration                                 : 26mn 2s
Bit rate                                 : 870 Kbps
Maximum bit rate                         : 5 384 Kbps
Width                                    : 1 280 pixels
Height                                   : 720 pixels
Display aspect ratio                     : 16:9
Frame rate mode                          : Constant
Frame rate                               : 23.976 fps
Color space                              : YUV
Chroma subsampling                       : 4:2:0
Bit depth                                : 8 bits
Scan type                                : Progressive
Bits/(Pixel*Frame)                       : 0.039
Stream size                              : 162 MiB (77%)
Writing library                          : x264 core 146 r2538 121396c
Encoding settings                        : cabac=1 / ref=2 / deblock=1:0:0 / analyse=0x3:0x113 / me=hex / subme=6 / psy=1 / psy_rd=1.00:0.00 / mixed_ref=1 / me_range=16 / chroma_me=1 / trellis=1 / 8x8dct=1 / cqm=0 / deadzone=21,11 / fast_pskip=1 / chroma_qp_offset=-2 / threads=6 / lookahead_threads=1 / sliced_threads=0 / nr=0 / decimate=1 / interlaced=0 / bluray_compat=0 / constrained_intra=0 / bframes=3 / b_pyramid=2 / b_adapt=1 / b_bias=0 / direct=1 / weightb=1 / open_gop=0 / weightp=1 / keyint=240 / keyint_min=23 / scenecut=40 / intra_refresh=0 / rc_lookahead=30 / rc=crf / mbtree=1 / crf=23.0 / qcomp=0.60 / qpmin=0 / qpmax=69 / qpstep=4 / ip_ratio=1.40 / aq=1:1.00
Encoded date                             : UTC 2015-10-30 23:59:04
Tagged date                              : UTC 2015-10-30 23:59:14

Audio
ID                                       : 2
Format                                   : AAC
Format/Info                              : Advanced Audio Codec
Format profile                           : LC
Codec ID                                 : 40
Duration                                 : 26mn 2s
Bit rate mode                            : Variable
Bit rate                                 : 265 Kbps
Maximum bit rate                         : 397 Kbps
Channel(s)                               : 2 channels
Channel positions                        : Front: L R
Sampling rate                            : 48.0 KHz
Compression mode                         : Lossy
Stream size                              : 48.9 MiB (23%)
Encoded date                             : UTC 2015-10-30 23:31:07
Tagged date                              : UTC 2015-10-30 23:59:14

Menu
00:00:00.000                             : Intro
00:02:06.980                             : Part A
00:12:12.000                             : Part B
00:23:59.910                             : ED
00:25:29.960                             : Preview

Other Files in this Torrent
[JacobSwaggedUp] Tokyo Ghoul - 01 (BD 1280x720).mp4
beta
Anime DDL+NZB mirror
Current Time: 10/07/2020 03:13



About/FAQs