File Size196.8 MB (206,350,268 bytes)
DownloadGo4Up | Jheberg | MultiUp | Sendspace | SolidFiles
Encrypted DownloadDirect
Password:
HashesCRC32: 9866F219, MD5: 132F30550572E5E9B5B59B793DD416BB, SHA1: 0B768275CEDD4269E4FED4CCF06F3A0EAD40D54E, SHA256: 15AD8B113B63264E2F290A0D63F5143EC560B50ECC8B9E55D3E7D848A1056A16, ED2K: AA28E4BA03EBC470BAD8F55D44FD2D75
Screenshots
screenshotscreenshotscreenshotscreenshotscreenshot
Additional Info
General
Complete name                            : [JacobSwaggedUp] Tokyo Ghoul - 04 (BD 1280x720).mp4
Format                                   : MPEG-4
Format profile                           : Base Media
Codec ID                                 : isom
File size                                : 197 MiB
Duration                                 : 24mn 0s
Overall bit rate mode                    : Variable
Overall bit rate                         : 1 146 Kbps
Encoded date                             : UTC 2015-10-31 01:58:32
Tagged date                              : UTC 2015-10-31 01:58:32

Video
ID                                       : 1
Format                                   : AVC
Format/Info                              : Advanced Video Codec
Format profile                           : High@L3.1
Format settings, CABAC                   : Yes
Format settings, ReFrames                : 4 frames
Codec ID                                 : avc1
Codec ID/Info                            : Advanced Video Coding
Duration                                 : 23mn 59s
Bit rate                                 : 891 Kbps
Maximum bit rate                         : 6 322 Kbps
Width                                    : 1 280 pixels
Height                                   : 720 pixels
Display aspect ratio                     : 16:9
Frame rate mode                          : Constant
Frame rate                               : 23.976 fps
Color space                              : YUV
Chroma subsampling                       : 4:2:0
Bit depth                                : 8 bits
Scan type                                : Progressive
Bits/(Pixel*Frame)                       : 0.040
Stream size                              : 153 MiB (78%)
Writing library                          : x264 core 146 r2538 121396c
Encoding settings                        : cabac=1 / ref=2 / deblock=1:0:0 / analyse=0x3:0x113 / me=hex / subme=6 / psy=1 / psy_rd=1.00:0.00 / mixed_ref=1 / me_range=16 / chroma_me=1 / trellis=1 / 8x8dct=1 / cqm=0 / deadzone=21,11 / fast_pskip=1 / chroma_qp_offset=-2 / threads=6 / lookahead_threads=1 / sliced_threads=0 / nr=0 / decimate=1 / interlaced=0 / bluray_compat=0 / constrained_intra=0 / bframes=3 / b_pyramid=2 / b_adapt=1 / b_bias=0 / direct=1 / weightb=1 / open_gop=0 / weightp=1 / keyint=240 / keyint_min=23 / scenecut=40 / intra_refresh=0 / rc_lookahead=30 / rc=crf / mbtree=1 / crf=23.0 / qcomp=0.60 / qpmin=0 / qpmax=69 / qpstep=4 / ip_ratio=1.40 / aq=1:1.00
Encoded date                             : UTC 2015-10-31 01:58:32
Tagged date                              : UTC 2015-10-31 01:58:43

Audio
ID                                       : 2
Format                                   : AAC
Format/Info                              : Advanced Audio Codec
Format profile                           : LC
Codec ID                                 : 40
Duration                                 : 24mn 0s
Bit rate mode                            : Variable
Bit rate                                 : 251 Kbps
Maximum bit rate                         : 388 Kbps
Channel(s)                               : 2 channels
Channel positions                        : Front: L R
Sampling rate                            : 48.0 KHz
Compression mode                         : Lossy
Stream size                              : 43.2 MiB (22%)
Encoded date                             : UTC 2015-10-31 01:31:18
Tagged date                              : UTC 2015-10-31 01:58:43

Menu
00:00:00.000                             : Intro
00:01:13.970                             : OP
00:02:44.010                             : Part A
00:14:15.000                             : Part B
00:22:00.000                             : ED
00:23:29.970                             : Preview

Other Files in this Torrent
[JacobSwaggedUp] Tokyo Ghoul - 04 (BD 1280x720).mp4
beta
Anime DDL+NZB mirror
Current Time: 19/11/2019 20:08



About/FAQs