File Size201.6 MB (211,387,692 bytes)
DownloadGo4Up | Jheberg | MultiUp | Sendspace | SolidFiles
HashesCRC32: DFFEF32D, MD5: 6335C9175342C40B24EB8C1F0D2C9083, SHA1: 28770D5409586BD0B48A9E548321BCC793AA348A, SHA256: 2B150159C85EFCDC5F23135A43A8D2B1538C3C58E2AC711F33676AB52E6C6522, ED2K: B2921F1B3CD0F0694003BE3A18FD0984
Screenshots
screenshotscreenshotscreenshotscreenshotscreenshot
Additional Info
General
Complete name                            : [JacobSwaggedUp] Tokyo Ghoul - 07 (BD 1280x720).mp4
Format                                   : MPEG-4
Format profile                           : Base Media
Codec ID                                 : isom
File size                                : 202 MiB
Duration                                 : 24mn 6s
Overall bit rate mode                    : Variable
Overall bit rate                         : 1 169 Kbps
Encoded date                             : UTC 2015-10-31 03:19:36
Tagged date                              : UTC 2015-10-31 03:19:36

Video
ID                                       : 1
Format                                   : AVC
Format/Info                              : Advanced Video Codec
Format profile                           : High@L3.1
Format settings, CABAC                   : Yes
Format settings, ReFrames                : 4 frames
Codec ID                                 : avc1
Codec ID/Info                            : Advanced Video Coding
Duration                                 : 24mn 5s
Bit rate                                 : 900 Kbps
Maximum bit rate                         : 7 334 Kbps
Width                                    : 1 280 pixels
Height                                   : 720 pixels
Display aspect ratio                     : 16:9
Frame rate mode                          : Constant
Frame rate                               : 23.976 fps
Color space                              : YUV
Chroma subsampling                       : 4:2:0
Bit depth                                : 8 bits
Scan type                                : Progressive
Bits/(Pixel*Frame)                       : 0.041
Stream size                              : 155 MiB (77%)
Writing library                          : x264 core 146 r2538 121396c
Encoding settings                        : cabac=1 / ref=2 / deblock=1:0:0 / analyse=0x3:0x113 / me=hex / subme=6 / psy=1 / psy_rd=1.00:0.00 / mixed_ref=1 / me_range=16 / chroma_me=1 / trellis=1 / 8x8dct=1 / cqm=0 / deadzone=21,11 / fast_pskip=1 / chroma_qp_offset=-2 / threads=6 / lookahead_threads=1 / sliced_threads=0 / nr=0 / decimate=1 / interlaced=0 / bluray_compat=0 / constrained_intra=0 / bframes=3 / b_pyramid=2 / b_adapt=1 / b_bias=0 / direct=1 / weightb=1 / open_gop=0 / weightp=1 / keyint=240 / keyint_min=23 / scenecut=40 / intra_refresh=0 / rc_lookahead=30 / rc=crf / mbtree=1 / crf=23.0 / qcomp=0.60 / qpmin=0 / qpmax=69 / qpstep=4 / ip_ratio=1.40 / aq=1:1.00
Encoded date                             : UTC 2015-10-31 03:19:36
Tagged date                              : UTC 2015-10-31 03:19:52

Audio
ID                                       : 2
Format                                   : AAC
Format/Info                              : Advanced Audio Codec
Format profile                           : LC
Codec ID                                 : 40
Duration                                 : 24mn 6s
Bit rate mode                            : Variable
Bit rate                                 : 265 Kbps
Maximum bit rate                         : 400 Kbps
Channel(s)                               : 2 channels
Channel positions                        : Front: L R
Sampling rate                            : 48.0 KHz
Compression mode                         : Lossy
Stream size                              : 45.7 MiB (23%)
Encoded date                             : UTC 2015-10-31 02:55:15
Tagged date                              : UTC 2015-10-31 03:19:52

Menu
00:00:00.000                             : Intro
00:02:18.990                             : OP
00:03:49.000                             : Part A
00:10:56.920                             : Part B
00:22:05.920                             : ED
00:23:35.890                             : Preview

Other Files in this Torrent
[JacobSwaggedUp] Tokyo Ghoul - 07 (BD 1280x720).mp4
beta
Anime DDL+NZB mirror
Current Time: 10/07/2020 03:42



About/FAQs