File Size172.1 MB (180,474,164 bytes)
DownloadGo4Up | Jheberg | MultiUp | Sendspace | SolidFiles
HashesCRC32: EE1407B7, MD5: AAA1D66F8B6452B4838DB6DECB80AFA6, SHA1: 075AAFBD3AF4C4A84FD3071D26892B707018B1DC, SHA256: 17EC88C2209A501C0072C1E0E31C5D2EF3523B14D6E3FB55A5FCB75680208CB7, ED2K: 41A1C92C249ABC1456B8FCD1F358194B
Screenshots
screenshotscreenshotscreenshotscreenshotscreenshot
Additional Info
General
Complete name                            : [JacobSwaggedUp] Tokyo Ghoul - 02 (BD 1280x720).mp4
Format                                   : MPEG-4
Format profile                           : Base Media
Codec ID                                 : isom
File size                                : 172 MiB
Duration                                 : 24mn 0s
Overall bit rate mode                    : Variable
Overall bit rate                         : 1 003 Kbps
Encoded date                             : UTC 2015-10-31 01:04:34
Tagged date                              : UTC 2015-10-31 01:04:34

Video
ID                                       : 1
Format                                   : AVC
Format/Info                              : Advanced Video Codec
Format profile                           : High@L3.1
Format settings, CABAC                   : Yes
Format settings, ReFrames                : 4 frames
Codec ID                                 : avc1
Codec ID/Info                            : Advanced Video Coding
Duration                                 : 23mn 59s
Bit rate                                 : 743 Kbps
Maximum bit rate                         : 6 386 Kbps
Width                                    : 1 280 pixels
Height                                   : 720 pixels
Display aspect ratio                     : 16:9
Frame rate mode                          : Constant
Frame rate                               : 23.976 fps
Color space                              : YUV
Chroma subsampling                       : 4:2:0
Bit depth                                : 8 bits
Scan type                                : Progressive
Bits/(Pixel*Frame)                       : 0.034
Stream size                              : 128 MiB (74%)
Writing library                          : x264 core 146 r2538 121396c
Encoding settings                        : cabac=1 / ref=2 / deblock=1:0:0 / analyse=0x3:0x113 / me=hex / subme=6 / psy=1 / psy_rd=1.00:0.00 / mixed_ref=1 / me_range=16 / chroma_me=1 / trellis=1 / 8x8dct=1 / cqm=0 / deadzone=21,11 / fast_pskip=1 / chroma_qp_offset=-2 / threads=6 / lookahead_threads=1 / sliced_threads=0 / nr=0 / decimate=1 / interlaced=0 / bluray_compat=0 / constrained_intra=0 / bframes=3 / b_pyramid=2 / b_adapt=1 / b_bias=0 / direct=1 / weightb=1 / open_gop=0 / weightp=1 / keyint=240 / keyint_min=23 / scenecut=40 / intra_refresh=0 / rc_lookahead=30 / rc=crf / mbtree=1 / crf=23.0 / qcomp=0.60 / qpmin=0 / qpmax=69 / qpstep=4 / ip_ratio=1.40 / aq=1:1.00
Encoded date                             : UTC 2015-10-31 01:04:34
Tagged date                              : UTC 2015-10-31 01:04:44

Audio
ID                                       : 2
Format                                   : AAC
Format/Info                              : Advanced Audio Codec
Format profile                           : LC
Codec ID                                 : 40
Duration                                 : 24mn 0s
Bit rate mode                            : Variable
Bit rate                                 : 256 Kbps
Maximum bit rate                         : 421 Kbps
Channel(s)                               : 2 channels
Channel positions                        : Front: L R
Sampling rate                            : 48.0 KHz
Compression mode                         : Lossy
Stream size                              : 43.9 MiB (25%)
Encoded date                             : UTC 2015-10-31 00:38:52
Tagged date                              : UTC 2015-10-31 01:04:44

Menu
00:00:00.000                             : Intro
00:01:33.940                             : OP
00:03:03.950                             : Part A
00:10:11.960                             : Part B
00:22:00.090                             : ED
00:23:29.930                             : Preview

Other Files in this Torrent
[JacobSwaggedUp] Tokyo Ghoul - 02 (BD 1280x720).mp4
beta
Anime DDL+NZB mirror
Current Time: 22/09/2020 11:18



About/FAQs