(Hi10)_Mob_Psycho_100_-_OP_(BD_1080p)_(Akatomba-Idle)_(057D3BDA).mkv


File Size105.3 MB (110,396,315 bytes)
DownloadClickNUpload | Go4Up | Jheberg | MultiUp | OpenLoad | Sendspace | SolidFiles | ZippyShare
HashesCRC32: 057D3BDA, MD5: F965476F5DA5371A352CE7CAC3646C17, SHA1: 8D82927E68F8D00752D0B7B7531D745B874D9972, SHA256: C1B07C0A2169446E91825BB6634E044EAEF8C769997108F05259EEA5F884F5F5, ED2K: 3BA109AD71A2DE2BA4281041EC380FAE
Screenshots
screenshot
SubtitlesAll Attachments | Modified by *kBaraka* [eng, ASS]
Additional Info
General
Unique ID                                : 301519258825782954376645487347221854078 (0xE2D67F37578E0A4BB6F7C5E3F74AF77E)
Complete name                            : (Hi10)_Mob_Psycho_100_-_OP_(BD_1080p)_(Akatomba-Idle)_(057D3BDA).mkv
Format                                   : Matroska
Format version                           : Version 4 / Version 2
File size                                : 105 MiB
Duration                                 : 1 min 29 s
Overall bit rate                         : 9 815 kb/s
Encoded date                             : UTC 2018-02-21 16:53:07
Writing application                      : mkvmerge v7.8.0 ('River Man') 32bit built on Mar 27 2015 16:18:02
Writing library                          : libebml v1.3.1 + libmatroska v1.4.2
Attachments                              : disco.ttf / Psycho Numbers.ttf / RaysHand Regular.ttf

Video
ID                                       : 1
Format                                   : AVC
Format/Info                              : Advanced Video Codec
Format profile                           : High 10@L5.1
Format settings, CABAC                   : Yes
Format settings, ReFrames                : 16 frames
Codec ID                                 : V_MPEG4/ISO/AVC
Duration                                 : 1 min 29 s
Bit rate                                 : 9 657 kb/s
Width                                    : 1 920 pixels
Height                                   : 1 080 pixels
Display aspect ratio                     : 16:9
Frame rate mode                          : Constant
Frame rate                               : 23.976 (24000/1001) FPS
Color space                              : YUV
Chroma subsampling                       : 4:2:0
Bit depth                                : 10 bits
Scan type                                : Progressive
Bits/(Pixel*Frame)                       : 0.194
Stream size                              : 104 MiB (98%)
Writing library                          : x264 core 152 r2851+58 429492e t_mod_Custom [10-bit@all X86_64]
Encoding settings                        : cabac=1 / ref=16 / deblock=1:1:1 / analyse=0x3:0x133 / me=umh / subme=10 / psy=1 / fade_compensate=0.00 / psy_rd=0.60:0.15 / mixed_ref=1 / me_range=24 / chroma_me=1 / trellis=2 / 8x8dct=1 / cqm=0 / deadzone=21,11 / fast_pskip=1 / chroma_qp_offset=-3 / threads=12 / lookahead_threads=3 / sliced_threads=0 / nr=0 / decimate=1 / interlaced=0 / bluray_compat=0 / constrained_intra=0 / fgo=0 / bframes=10 / b_pyramid=2 / b_adapt=2 / b_bias=0 / direct=3 / weightb=1 / open_gop=0 / weightp=2 / keyint=250 / keyint_min=23 / scenecut=45 / intra_refresh=0 / rc_lookahead=60 / rc=crf / mbtree=1 / crf=18.0000 / qcomp=0.70 / qpmin=10:10:10 / qpmax=51:51:51 / qpstep=4 / ip_ratio=1.40 / aq=3:1.00 / aq-sensitivity=10.00 / aq-factor=1.00:1.00:1.00 / aq2=0 / aq3=0
Language                                 : English
Default                                  : Yes
Forced                                   : No

Audio
ID                                       : 2
Format                                   : AAC
Format/Info                              : Advanced Audio Codec
Format profile                           : LC
Codec ID                                 : A_AAC
Duration                                 : 1 min 29 s
Bit rate                                 : 132 kb/s
Channel(s)                               : 2 channels
Channel positions                        : Front: L R
Sampling rate                            : 48.0 kHz
Frame rate                               : 46.875 FPS (1024 spf)
Compression mode                         : Lossy
Stream size                              : 1.42 MiB (1%)
Language                                 : Japanese
Default                                  : Yes
Forced                                   : No

Text
ID                                       : 3
Format                                   : ASS
Codec ID                                 : S_TEXT/ASS
Codec ID/Info                            : Advanced Sub Station Alpha
Duration                                 : 1 min 29 s
Bit rate                                 : 9 379 b/s
Count of elements                        : 1072
Compression mode                         : Lossless
Stream size                              : 103 KiB (0%)
Title                                    : Modified by *kBaraka*
Language                                 : English
Default                                  : Yes
Forced                                   : No

Other Files in this Torrent
(Hi10)_Mob_Psycho_100_-_OP_(BD_1080p)_(Akatomba-Idle)_(057D3BDA).mkv
beta
Anime DDL+NZB mirror
Current Time: 21/01/2021 12:29



About/FAQs