(Hi10)_Mob_Psycho_100_-_12_(BD_1080p)_(Akatomba-Glue)_(B7B0C6E1).mkv


File Size307.8 MB (322,709,878 bytes)
DownloadClickNUpload | Go4Up | Jheberg | MultiUp | OpenLoad | SolidFiles | ZippyShare
Sendspace: Part1, Part2
HashesCRC32: B7B0C6E1, MD5: 0FF07E641A77982D0F552407236F7FD5, SHA1: 0ADE8007D62A72CB8B813026770A3BC338521498, SHA256: 7D323EA7BEA103C6156397A0A672CE0A2B9444F9EB4688E42AEB7943F1BC1AE3, ED2K: 66E55E4A0391C4D66B74A9B25902FB6E
Screenshots
screenshotscreenshotscreenshotscreenshotscreenshot
SubtitlesAll Attachments | Modified by *kBaraka* [eng, ASS]
Additional Info
General
Unique ID                                : 206952194946582558715455046550574004989 (0x9BB18AFD7D13C26889A8505EDE46FAFD)
Complete name                            : (Hi10)_Mob_Psycho_100_-_12_(BD_1080p)_(Akatomba-Glue)_(B7B0C6E1).mkv
Format                                   : Matroska
Format version                           : Version 4 / Version 2
File size                                : 308 MiB
Duration                                 : 22 min 41 s
Overall bit rate                         : 1 897 kb/s
Movie name                               : Mob Psycho 100 - 12: Mob and Reigen ~A Giant Tsuchinoko Appears~
Encoded date                             : UTC 2018-02-21 17:30:54
Writing application                      : mkvmerge v7.8.0 ('River Man') 32bit built on Mar 27 2015 16:18:02
Writing library                          : libebml v1.3.1 + libmatroska v1.4.2
Attachments                              : Aero Matics Bold.ttf / Amaranth-Bold.otf / blemished.ttf / CONSTANB.TTF / Montara-Gothic.ttf / Montara-Italic_0.ttf / RaysHand Regular.ttf / SALADEDEFRUITSORANGE.TTF

Video
ID                                       : 1
Format                                   : AVC
Format/Info                              : Advanced Video Codec
Format profile                           : High 10@L5.1
Format settings, CABAC                   : Yes
Format settings, ReFrames                : 16 frames
Codec ID                                 : V_MPEG4/ISO/AVC
Duration                                 : 22 min 41 s
Bit rate                                 : 1 777 kb/s
Width                                    : 1 920 pixels
Height                                   : 1 080 pixels
Display aspect ratio                     : 16:9
Frame rate mode                          : Constant
Frame rate                               : 23.976 (24000/1001) FPS
Color space                              : YUV
Chroma subsampling                       : 4:2:0
Bit depth                                : 10 bits
Scan type                                : Progressive
Bits/(Pixel*Frame)                       : 0.036
Stream size                              : 288 MiB (94%)
Writing library                          : x264 core 152 r2851+58 429492e t_mod_Custom [10-bit@all X86_64]
Encoding settings                        : cabac=1 / ref=16 / deblock=1:1:1 / analyse=0x3:0x133 / me=umh / subme=10 / psy=1 / fade_compensate=0.00 / psy_rd=0.60:0.15 / mixed_ref=1 / me_range=24 / chroma_me=1 / trellis=2 / 8x8dct=1 / cqm=0 / deadzone=21,11 / fast_pskip=1 / chroma_qp_offset=-3 / threads=12 / lookahead_threads=3 / sliced_threads=0 / nr=0 / decimate=1 / interlaced=0 / bluray_compat=0 / constrained_intra=0 / fgo=0 / bframes=10 / b_pyramid=2 / b_adapt=2 / b_bias=0 / direct=3 / weightb=1 / open_gop=0 / weightp=2 / keyint=250 / keyint_min=23 / scenecut=45 / intra_refresh=0 / rc_lookahead=60 / rc=crf / mbtree=1 / crf=24.0000 / qcomp=0.70 / qpmin=10:10:10 / qpmax=51:51:51 / qpstep=4 / ip_ratio=1.40 / aq=3:1.00 / aq-sensitivity=10.00 / aq-factor=1.00:1.00:1.00 / aq2=0 / aq3=0
Language                                 : English
Default                                  : Yes
Forced                                   : No

Audio
ID                                       : 2
Format                                   : AAC
Format/Info                              : Advanced Audio Codec
Format profile                           : LC
Codec ID                                 : A_AAC
Duration                                 : 22 min 41 s
Bit rate                                 : 110 kb/s
Channel(s)                               : 2 channels
Channel positions                        : Front: L R
Sampling rate                            : 48.0 kHz
Frame rate                               : 46.875 FPS (1024 spf)
Compression mode                         : Lossy
Stream size                              : 17.8 MiB (6%)
Language                                 : Japanese
Default                                  : Yes
Forced                                   : No

Text
ID                                       : 3
Format                                   : ASS
Codec ID                                 : S_TEXT/ASS
Codec ID/Info                            : Advanced Sub Station Alpha
Duration                                 : 22 min 39 s
Bit rate                                 : 1 693 b/s
Count of elements                        : 2601
Compression mode                         : Lossless
Stream size                              : 281 KiB (0%)
Title                                    : Modified by *kBaraka*
Language                                 : English
Default                                  : Yes
Forced                                   : No

Menu
00:00:00.000                             : Prologue / Opening
00:00:45.044                             : Part A
00:13:23.010                             : Part B
00:17:43.700                             : Ending
00:19:16.280                             : Epilogue
00:20:12.085                             : Part C

Other Files in this Torrent
(Hi10)_Mob_Psycho_100_-_12_(BD_1080p)_(Akatomba-Glue)_(B7B0C6E1).mkv
beta
Anime DDL+NZB mirror
Current Time: 21/01/2021 11:34



About/FAQs