(Hi10)_Mob_Psycho_100_-_05_(BD_1080p)_(Akatomba-Glue)_(AEF90B3C).mkv


File Size186.4 MB (195,466,692 bytes)
DownloadClickNUpload | Go4Up | Jheberg | MultiUp | OpenLoad | Sendspace | SolidFiles | ZippyShare
HashesCRC32: AEF90B3C, MD5: 6DA3068BCE3D327BDEA6E4D0177FADE4, SHA1: 1F70D2FA9FFA5FB72CF633BDAC2C39FAB23115EC, SHA256: A54E47CB40B402DEA67EA1F5218476BBB5D25234BF9BDD19C3C0341113B82662, ED2K: C77D663AB23A96D2C95E9F87C676358C
Screenshots
screenshotscreenshotscreenshotscreenshotscreenshot
SubtitlesAll Attachments | Modified by *kBaraka* [eng, ASS]
Additional Info
General
Unique ID                                : 161650968569216770476074043014363353166 (0x799CD816536AF3AC8C052F030C6A104E)
Complete name                            : (Hi10)_Mob_Psycho_100_-_05_(BD_1080p)_(Akatomba-Glue)_(AEF90B3C).mkv
Format                                   : Matroska
Format version                           : Version 4 / Version 2
File size                                : 186 MiB
Duration                                 : 21 min 12 s
Overall bit rate                         : 1 229 kb/s
Movie name                               : Mob Psycho 100 - 05: OCHIMUSHA ~Psychic Powers and Me~
Encoded date                             : UTC 2018-02-22 11:28:06
Writing application                      : mkvmerge v7.8.0 ('River Man') 32bit built on Mar 27 2015 16:18:02
Writing library                          : libebml v1.3.1 + libmatroska v1.4.2
Attachments                              : Aero Matics Bold.ttf / ARCENA.ttf / CONSTANB.TTF / disco.ttf / Montara-Gothic.ttf / Montara-Italic_0.ttf / Oregano-Regular.ttf / Psycho Numbers.ttf / RaysHand Regular.ttf

Video
ID                                       : 1
Format                                   : AVC
Format/Info                              : Advanced Video Codec
Format profile                           : High 10@L5.1
Format settings, CABAC                   : Yes
Format settings, ReFrames                : 16 frames
Codec ID                                 : V_MPEG4/ISO/AVC
Duration                                 : 21 min 12 s
Bit rate                                 : 1 111 kb/s
Width                                    : 1 920 pixels
Height                                   : 1 080 pixels
Display aspect ratio                     : 16:9
Frame rate mode                          : Constant
Frame rate                               : 23.976 (24000/1001) FPS
Color space                              : YUV
Chroma subsampling                       : 4:2:0
Bit depth                                : 10 bits
Scan type                                : Progressive
Bits/(Pixel*Frame)                       : 0.022
Stream size                              : 169 MiB (90%)
Writing library                          : x264 core 152 r2851+58 429492e t_mod_Custom [10-bit@all X86_64]
Encoding settings                        : cabac=1 / ref=16 / deblock=1:1:1 / analyse=0x3:0x133 / me=umh / subme=10 / psy=1 / fade_compensate=0.00 / psy_rd=0.60:0.15 / mixed_ref=1 / me_range=24 / chroma_me=1 / trellis=2 / 8x8dct=1 / cqm=0 / deadzone=21,11 / fast_pskip=1 / chroma_qp_offset=-3 / threads=12 / lookahead_threads=3 / sliced_threads=0 / nr=0 / decimate=1 / interlaced=0 / bluray_compat=0 / constrained_intra=0 / fgo=0 / bframes=10 / b_pyramid=2 / b_adapt=2 / b_bias=0 / direct=3 / weightb=1 / open_gop=0 / weightp=2 / keyint=250 / keyint_min=23 / scenecut=45 / intra_refresh=0 / rc_lookahead=60 / rc=crf / mbtree=1 / crf=24.0000 / qcomp=0.70 / qpmin=10:10:10 / qpmax=51:51:51 / qpstep=4 / ip_ratio=1.40 / aq=3:1.00 / aq-sensitivity=10.00 / aq-factor=1.00:1.00:1.00 / aq2=0 / aq3=0
Language                                 : English
Default                                  : Yes
Forced                                   : No

Audio
ID                                       : 2
Format                                   : AAC
Format/Info                              : Advanced Audio Codec
Format profile                           : LC
Codec ID                                 : A_AAC
Duration                                 : 21 min 12 s
Bit rate                                 : 110 kb/s
Channel(s)                               : 2 channels
Channel positions                        : Front: L R
Sampling rate                            : 48.0 kHz
Frame rate                               : 46.875 FPS (1024 spf)
Compression mode                         : Lossy
Stream size                              : 16.7 MiB (9%)
Language                                 : Japanese
Default                                  : Yes
Forced                                   : No

Text
ID                                       : 3
Format                                   : ASS
Codec ID                                 : S_TEXT/ASS
Codec ID/Info                            : Advanced Sub Station Alpha
Duration                                 : 21 min 10 s
Bit rate                                 : 322 b/s
Count of elements                        : 519
Compression mode                         : Lossless
Stream size                              : 50.0 KiB (0%)
Title                                    : Modified by *kBaraka*
Language                                 : English
Default                                  : Yes
Forced                                   : No

Menu
00:00:00.000                             : en:Prologue / en:Opening / en:Ending
00:00:42.041                             : en:Part A
00:08:53.074                             : en:Part B
00:20:55.087                             : en:Preview

Other Files in this Torrent
(Hi10)_Mob_Psycho_100_-_05_(BD_1080p)_(Akatomba-Glue)_(AEF90B3C).mkv
beta
Anime DDL+NZB mirror
Current Time: 17/01/2021 17:02



About/FAQs