Extras/(Hi10)_Mob_Psycho_100_-_PV2_(BD_1080p)_(Akatomba)_(C02BD6D7).mkv


File Size59.19 MB (62,060,986 bytes)
DownloadClickNUpload | Go4Up | Jheberg | MultiUp | OpenLoad | Sendspace | SolidFiles | ZippyShare
HashesCRC32: C02BD6D7, MD5: 3FA9E0BE09938BC26D023B19CCAC48F4, SHA1: 62A6925B1B4E0D4710A39831E5A2A3D41D619F8A, SHA256: 51462F17B3667221FFA3579DBD9D20C38C9F44A5C00C373F029ACEA162AEB213, ED2K: 8A8BE891EB564E062AF3BA62B10ACBDA
Screenshots
screenshotscreenshot
Additional Info
General
Unique ID                                : 328885675733876958144235287468495523866 (0xF76D13BDFA78C59C8DAA3A79F2C6D01A)
Complete name                            : (Hi10)_Mob_Psycho_100_-_PV2_(BD_1080p)_(Akatomba)_(C02BD6D7).mkv
Format                                   : Matroska
Format version                           : Version 4 / Version 2
File size                                : 59.2 MiB
Duration                                 : 1 min 57 s
Overall bit rate                         : 4 216 kb/s
Encoded date                             : UTC 2018-02-22 19:07:08
Writing application                      : mkvmerge v7.8.0 ('River Man') 32bit built on Mar 27 2015 16:18:02
Writing library                          : libebml v1.3.1 + libmatroska v1.4.2

Video
ID                                       : 1
Format                                   : AVC
Format/Info                              : Advanced Video Codec
Format profile                           : High 10@L5.1
Format settings, CABAC                   : Yes
Format settings, ReFrames                : 16 frames
Codec ID                                 : V_MPEG4/ISO/AVC
Duration                                 : 1 min 57 s
Bit rate                                 : 4 091 kb/s
Width                                    : 1 920 pixels
Height                                   : 1 080 pixels
Display aspect ratio                     : 16:9
Frame rate mode                          : Constant
Frame rate                               : 23.976 (24000/1001) FPS
Color space                              : YUV
Chroma subsampling                       : 4:2:0
Bit depth                                : 10 bits
Scan type                                : Progressive
Bits/(Pixel*Frame)                       : 0.082
Stream size                              : 57.4 MiB (97%)
Writing library                          : x264 core 152 r2851+58 429492e t_mod_Custom [10-bit@all X86_64]
Encoding settings                        : cabac=1 / ref=16 / deblock=1:1:1 / analyse=0x3:0x133 / me=umh / subme=10 / psy=1 / fade_compensate=0.00 / psy_rd=0.60:0.15 / mixed_ref=1 / me_range=24 / chroma_me=1 / trellis=2 / 8x8dct=1 / cqm=0 / deadzone=21,11 / fast_pskip=1 / chroma_qp_offset=-3 / threads=12 / lookahead_threads=3 / sliced_threads=0 / nr=0 / decimate=1 / interlaced=0 / bluray_compat=0 / constrained_intra=0 / fgo=0 / bframes=10 / b_pyramid=2 / b_adapt=2 / b_bias=0 / direct=3 / weightb=1 / open_gop=0 / weightp=2 / keyint=250 / keyint_min=23 / scenecut=45 / intra_refresh=0 / rc_lookahead=60 / rc=crf / mbtree=1 / crf=24.0000 / qcomp=0.70 / qpmin=10:10:10 / qpmax=51:51:51 / qpstep=4 / ip_ratio=1.40 / aq=3:1.00 / aq-sensitivity=10.00 / aq-factor=1.00:1.00:1.00 / aq2=0 / aq3=0
Language                                 : English
Default                                  : Yes
Forced                                   : No

Audio
ID                                       : 2
Format                                   : AAC
Format/Info                              : Advanced Audio Codec
Format profile                           : LC
Codec ID                                 : A_AAC
Duration                                 : 1 min 57 s
Bit rate                                 : 123 kb/s
Channel(s)                               : 2 channels
Channel positions                        : Front: L R
Sampling rate                            : 48.0 kHz
Frame rate                               : 46.875 FPS (1024 spf)
Compression mode                         : Lossy
Stream size                              : 1.73 MiB (3%)
Language                                 : Japanese
Default                                  : Yes
Forced                                   : No

Other Files in this Torrent
Extras/(Hi10)_Mob_Psycho_100_-_PV2_(BD_1080p)_(Akatomba)_(C02BD6D7).mkv
beta
Anime DDL+NZB mirror
Current Time: 21/01/2021 11:57



About/FAQs