(Hi10)_Mob_Psycho_100_-_08_(BD_1080p)_(Akatomba-Glue)_(C62B8937).mkv


File Size269.8 MB (282,888,623 bytes)
DownloadClickNUpload | Go4Up | Jheberg | MultiUp | OpenLoad | Sendspace | SolidFiles | ZippyShare
HashesCRC32: C62B8937, MD5: 9E5BABC45BE1117BB3F14721E0BF5C83, SHA1: 6EA632CD185D18AEB24879ED77D8A0D054103B32, SHA256: 399C284B49E43FEC2A69C46CAD967C522D60CE1AE1B61BF608A0F5828C9EB3A0, ED2K: D34E0D88A9C1E2384EA16A0AA2BBC3B3
Screenshots
screenshotscreenshotscreenshotscreenshotscreenshot
SubtitlesAll Attachments | Modified by *kBaraka* [eng, ASS]
Additional Info
General
Unique ID                                : 192520712630255876512760576098248757434 (0x90D623FA3A9077BC8EE1C6BB634510BA)
Complete name                            : (Hi10)_Mob_Psycho_100_-_08_(BD_1080p)_(Akatomba-Glue)_(C62B8937).mkv
Format                                   : Matroska
Format version                           : Version 4 / Version 2
File size                                : 270 MiB
Duration                                 : 22 min 41 s
Overall bit rate                         : 1 663 kb/s
Movie name                               : Mob Psycho 100 - 08: The Older Brother Bows ~Destructive Intent~
Encoded date                             : UTC 2018-02-21 17:27:19
Writing application                      : mkvmerge v7.8.0 ('River Man') 32bit built on Mar 27 2015 16:18:02
Writing library                          : libebml v1.3.1 + libmatroska v1.4.2
Attachments                              : Aero Matics Bold.ttf / CONSTANB.TTF / Generally Speaking.ttf / Montara-Gothic.ttf / Montara-Italic_0.ttf / Psycho Numbers.ttf / RaysHand Regular.ttf

Video
ID                                       : 1
Format                                   : AVC
Format/Info                              : Advanced Video Codec
Format profile                           : High 10@L5.1
Format settings, CABAC                   : Yes
Format settings, ReFrames                : 16 frames
Codec ID                                 : V_MPEG4/ISO/AVC
Duration                                 : 22 min 41 s
Bit rate                                 : 1 544 kb/s
Width                                    : 1 920 pixels
Height                                   : 1 080 pixels
Display aspect ratio                     : 16:9
Frame rate mode                          : Constant
Frame rate                               : 23.976 (24000/1001) FPS
Color space                              : YUV
Chroma subsampling                       : 4:2:0
Bit depth                                : 10 bits
Scan type                                : Progressive
Bits/(Pixel*Frame)                       : 0.031
Stream size                              : 251 MiB (93%)
Writing library                          : x264 core 152 r2851+58 429492e t_mod_Custom [10-bit@all X86_64]
Encoding settings                        : cabac=1 / ref=16 / deblock=1:1:1 / analyse=0x3:0x133 / me=umh / subme=10 / psy=1 / fade_compensate=0.00 / psy_rd=0.60:0.15 / mixed_ref=1 / me_range=24 / chroma_me=1 / trellis=2 / 8x8dct=1 / cqm=0 / deadzone=21,11 / fast_pskip=1 / chroma_qp_offset=-3 / threads=12 / lookahead_threads=3 / sliced_threads=0 / nr=0 / decimate=1 / interlaced=0 / bluray_compat=0 / constrained_intra=0 / fgo=0 / bframes=10 / b_pyramid=2 / b_adapt=2 / b_bias=0 / direct=3 / weightb=1 / open_gop=0 / weightp=2 / keyint=250 / keyint_min=23 / scenecut=45 / intra_refresh=0 / rc_lookahead=60 / rc=crf / mbtree=1 / crf=24.0000 / qcomp=0.70 / qpmin=10:10:10 / qpmax=51:51:51 / qpstep=4 / ip_ratio=1.40 / aq=3:1.00 / aq-sensitivity=10.00 / aq-factor=1.00:1.00:1.00 / aq2=0 / aq3=0
Language                                 : English
Default                                  : Yes
Forced                                   : No

Audio
ID                                       : 2
Format                                   : AAC
Format/Info                              : Advanced Audio Codec
Format profile                           : LC
Codec ID                                 : A_AAC
Duration                                 : 22 min 41 s
Bit rate                                 : 111 kb/s
Channel(s)                               : 2 channels
Channel positions                        : Front: L R
Sampling rate                            : 48.0 kHz
Frame rate                               : 46.875 FPS (1024 spf)
Compression mode                         : Lossy
Stream size                              : 18.1 MiB (7%)
Language                                 : Japanese
Default                                  : Yes
Forced                                   : No

Text
ID                                       : 3
Format                                   : ASS
Codec ID                                 : S_TEXT/ASS
Codec ID/Info                            : Advanced Sub Station Alpha
Duration                                 : 22 min 39 s
Bit rate                                 : 593 b/s
Count of elements                        : 1150
Compression mode                         : Lossless
Stream size                              : 98.5 KiB (0%)
Title                                    : Modified by *kBaraka*
Language                                 : English
Default                                  : Yes
Forced                                   : No

Menu
00:00:00.000                             : en:Prologue / en:Opening
00:00:54.053                             : en:Part A
00:11:52.044                             : en:Part B
00:21:29.746                             : en:Epilogue
00:22:25.010                             : en:Preview

Other Files in this Torrent
(Hi10)_Mob_Psycho_100_-_08_(BD_1080p)_(Akatomba-Glue)_(C62B8937).mkv
beta
Anime DDL+NZB mirror
Current Time: 21/01/2021 10:51



About/FAQs