(Hi10)_Mob_Psycho_100_-_04_(BD_1080p)_(Akatomba-Glue)_(469CE16F).mkv


File Size247.3 MB (259,318,537 bytes)
DownloadClickNUpload | Go4Up | Jheberg | MultiUp | OpenLoad | Sendspace | SolidFiles | ZippyShare
HashesCRC32: 469CE16F, MD5: 3237083A5C7386060277BE1E068D108D, SHA1: 60D15EC515AE483D7A41EC82E3D74BF9E50C1884, SHA256: 7EEC5E031682BA7B530A99BC68DD15D4E39E470E9505B1AF933A3CBEA6627E30, ED2K: FC3412D209AD4287A4575EA3E0AC9944
Screenshots
screenshotscreenshotscreenshotscreenshotscreenshot
SubtitlesAll Attachments | Modified by *kBaraka* [eng, ASS]
Additional Info
General
Unique ID                                : 329745985046727115661242808017241644709 (0xF812C4441C7D3D5260B7361D4E621EA5)
Complete name                            : (Hi10)_Mob_Psycho_100_-_04_(BD_1080p)_(Akatomba-Glue)_(469CE16F).mkv
Format                                   : Matroska
Format version                           : Version 4 / Version 2
File size                                : 247 MiB
Duration                                 : 21 min 11 s
Overall bit rate                         : 1 632 kb/s
Movie name                               : Mob Psycho 100 - 04: Idiots Only Event ~Kin~
Encoded date                             : UTC 2018-02-22 08:42:00
Writing application                      : mkvmerge v7.8.0 ('River Man') 32bit built on Mar 27 2015 16:18:02
Writing library                          : libebml v1.3.1 + libmatroska v1.4.2
Attachments                              : Aero Matics Bold.ttf / ARCENA.ttf / Brush Strokes.ttf / CONSTANB.TTF / disco.ttf / Eager_Naturalist.ttf / FOTGAKUMARUGOTHICALIASED-2B_0.TTF / Hand Of Sean Pro.otf / Hira v8.ttf / Montara-Gothic.ttf / Montara-Italic_0.ttf / OreMoji-W5.ttf / Psycho Numbers.ttf / RaysHand Regular.ttf

Video
ID                                       : 1
Format                                   : AVC
Format/Info                              : Advanced Video Codec
Format profile                           : High 10@L5.1
Format settings, CABAC                   : Yes
Format settings, ReFrames                : 16 frames
Codec ID                                 : V_MPEG4/ISO/AVC
Duration                                 : 21 min 11 s
Bit rate                                 : 1 507 kb/s
Width                                    : 1 920 pixels
Height                                   : 1 080 pixels
Display aspect ratio                     : 16:9
Frame rate mode                          : Constant
Frame rate                               : 23.976 (24000/1001) FPS
Color space                              : YUV
Chroma subsampling                       : 4:2:0
Bit depth                                : 10 bits
Scan type                                : Progressive
Bits/(Pixel*Frame)                       : 0.030
Stream size                              : 228 MiB (92%)
Writing library                          : x264 core 152 r2851+58 429492e t_mod_Custom [10-bit@all X86_64]
Encoding settings                        : cabac=1 / ref=16 / deblock=1:1:1 / analyse=0x3:0x133 / me=umh / subme=10 / psy=1 / fade_compensate=0.00 / psy_rd=0.60:0.15 / mixed_ref=1 / me_range=24 / chroma_me=1 / trellis=2 / 8x8dct=1 / cqm=0 / deadzone=21,11 / fast_pskip=1 / chroma_qp_offset=-3 / threads=12 / lookahead_threads=3 / sliced_threads=0 / nr=0 / decimate=1 / interlaced=0 / bluray_compat=0 / constrained_intra=0 / fgo=0 / bframes=10 / b_pyramid=2 / b_adapt=2 / b_bias=0 / direct=3 / weightb=1 / open_gop=0 / weightp=2 / keyint=250 / keyint_min=23 / scenecut=45 / intra_refresh=0 / rc_lookahead=60 / rc=crf / mbtree=1 / crf=24.0000 / qcomp=0.70 / qpmin=10:10:10 / qpmax=51:51:51 / qpstep=4 / ip_ratio=1.40 / aq=3:1.00 / aq-sensitivity=10.00 / aq-factor=1.00:1.00:1.00 / aq2=0 / aq3=0
Language                                 : English
Default                                  : Yes
Forced                                   : No

Audio
ID                                       : 2
Format                                   : AAC
Format/Info                              : Advanced Audio Codec
Format profile                           : LC
Codec ID                                 : A_AAC
Duration                                 : 21 min 11 s
Bit rate                                 : 109 kb/s
Channel(s)                               : 2 channels
Channel positions                        : Front: L R
Sampling rate                            : 48.0 kHz
Frame rate                               : 46.875 FPS (1024 spf)
Compression mode                         : Lossy
Stream size                              : 16.5 MiB (7%)
Language                                 : Japanese
Default                                  : Yes
Forced                                   : No

Text
ID                                       : 3
Format                                   : ASS
Codec ID                                 : S_TEXT/ASS
Codec ID/Info                            : Advanced Sub Station Alpha
Duration                                 : 21 min 10 s
Bit rate                                 : 1 675 b/s
Count of elements                        : 1821
Compression mode                         : Lossless
Stream size                              : 260 KiB (0%)
Title                                    : Modified by *kBaraka*
Language                                 : English
Default                                  : Yes
Forced                                   : No

Menu
00:00:00.000                             : en:Prologue / en:Opening / en:Ending
00:00:56.055                             : en:Part A
00:10:45.061                             : en:Part B
00:20:55.087                             : en:Preview

Other Files in this Torrent
(Hi10)_Mob_Psycho_100_-_04_(BD_1080p)_(Akatomba-Glue)_(469CE16F).mkv
beta
Anime DDL+NZB mirror
Current Time: 21/01/2021 10:39



About/FAQs