File Size35.54 MB (37,268,061 bytes)
DownloadClickNUpload | DiskoKosmiko | Go4Up | Jheberg | MultiUp | OpenLoad | Sendspace | SolidFiles | ZippyShare
HashesCRC32: 7C5EAA7D, MD5: F1C91849BFF7A0A1F6A01454C2DA0A47, SHA1: D46E2B1D94CD021AA2729EEE8BD75B7D332DE584, SHA256: B872CA00A0C85EFED3FEC2F9CDAD82EB656219945CEA41F51A1A6D85C19B5BE5, ED2K: DCECDD223B705A68FAB41FF208A85344
Screenshots
screenshotscreenshot
SubtitlesAll Attachments | und [ASS]
Additional Info
General
Unique ID                                : 243041921586520232624392122668840222684 (0xB6D82BE44F72B9CBA9B5395B7D597FDC)
Complete name                            : 98. opening.mkv
Format                                   : Matroska
Format version                           : Version 4 / Version 2
File size                                : 35.5 MiB
Duration                                 : 1 min 30 s
Overall bit rate                         : 3 287 kb/s
Movie name                               : [KAA] Kino no Tabi ~ the Beautiful World - 05
Encoded date                             : UTC 2015-09-07 18:49:04
Writing application                      : mkvmerge v8.3.0 ('Over the Horizon') 64bit
Writing library                          : libebml v1.3.1 + libmatroska v1.4.2
Attachments                              : LTe52140.ttf / TIMESI.TTF / Virtue.ttf / LTe52140.ttf / TIMES.TTF / TIMESBD.TTF / TIMESBI.TTF

Video
ID                                       : 1
Format                                   : AVC
Format/Info                              : Advanced Video Codec
Format profile                           : High 10@L4
Format settings, CABAC                   : Yes
Format settings, ReFrames                : 16 frames
Codec ID                                 : V_MPEG4/ISO/AVC
Duration                                 : 1 min 30 s
Bit rate                                 : 2 484 kb/s
Width                                    : 710 pixels
Height                                   : 478 pixels
Display aspect ratio                     : 16:9
Original display aspect ratio            : 16:9
Frame rate mode                          : Constant
Frame rate                               : 23.976 (24000/1001) FPS
Color space                              : YUV
Chroma subsampling                       : 4:2:0
Bit depth                                : 10 bits
Scan type                                : Progressive
Bits/(Pixel*Frame)                       : 0.305
Stream size                              : 26.7 MiB (75%)
Writing library                          : x264 core 148 r2597kMod e86f3a1
Encoding settings                        : cabac=1 / ref=16 / deblock=1:-1:-1 / analyse=0x3:0x133 / me=umh / subme=10 / psy=1 / fade_compensate=0.00 / psy_rd=0.80:0.00 / mixed_ref=1 / me_range=30 / chroma_me=1 / trellis=2 / 8x8dct=1 / cqm=0 / deadzone=21,11 / fast_pskip=0 / chroma_qp_offset=-2 / threads=8 / lookahead_threads=2 / sliced_threads=0 / nr=0 / decimate=1 / interlaced=0 / bluray_compat=0 / constrained_intra=0 / fgo=0 / bframes=16 / b_pyramid=2 / b_adapt=2 / b_bias=0 / direct=3 / weightb=1 / open_gop=0 / weightp=2 / keyint=288 / keyint_min=23 / scenecut=40 / intra_refresh=0 / rc_lookahead=60 / rc=crf / mbtree=1 / crf=16.0000 / qcomp=0.70 / qpmin=0 / qpmax=81 / qpstep=4 / ip_ratio=1.40 / aq=2:1.00
Default                                  : Yes
Forced                                   : No

Audio #1
ID                                       : 2
Format                                   : AAC
Format/Info                              : Advanced Audio Codec
Format profile                           : LC
Codec ID                                 : A_AAC
Duration                                 : 1 min 30 s
Bit rate                                 : 278 kb/s
Channel(s)                               : 2 channels
Channel positions                        : Front: L R
Sampling rate                            : 48.0 kHz
Frame rate                               : 46.875 FPS (1024 spf)
Compression mode                         : Lossy
Stream size                              : 2.98 MiB (8%)
Language                                 : Japanese
Default                                  : Yes
Forced                                   : No

Audio #2
ID                                       : 3
Format                                   : AAC
Format/Info                              : Advanced Audio Codec
Format profile                           : LC
Codec ID                                 : A_AAC
Duration                                 : 1 min 30 s
Bit rate                                 : 410 kb/s
Channel(s)                               : 6 channels
Channel positions                        : Front: L C R, Side: L R, LFE
Sampling rate                            : 48.0 kHz
Frame rate                               : 46.875 FPS (1024 spf)
Compression mode                         : Lossy
Delay relative to video                  : 5 ms
Stream size                              : 4.44 MiB (12%)
Language                                 : English
Default                                  : No
Forced                                   : No

Text
ID                                       : 4
Format                                   : ASS
Codec ID                                 : S_TEXT/ASS
Codec ID/Info                            : Advanced Sub Station Alpha
Duration                                 : 1 min 23 s
Bit rate                                 : 179 b/s
Count of elements                        : 24
Compression mode                         : Lossless
Stream size                              : 1.82 KiB (0%)
Default                                  : Yes
Forced                                   : No

Menu
00:00:00.066                             : en:Chapter 01

Other Files in this Torrent
98. opening.mkv
beta
Anime DDL+NZB mirror
Current Time: 19/06/2024 19:30



About/FAQs

Discord