File Size194.3 MB (203,695,150 bytes)
DownloadClickNUpload | DiskoKosmiko | Go4Up | Jheberg | MultiUp | OpenLoad | Sendspace | SolidFiles | ZippyShare
HashesCRC32: 394D81ED, MD5: 182CE6CD5DE0F0CDD1A4D36981E85CE0, SHA1: 6D511C4110E6460ED68987454F0DCF9C94790ED7, SHA256: 6D01B0AEBAE8780069E1087E97CCF029A03F78B4A8EC0718381C809D3BE17011, ED2K: E53EEAAFF8A05FD0D1DCE27AE8159325
Screenshots
screenshotscreenshotscreenshotscreenshotscreenshot
SubtitlesAll Attachments | und [ASS]
Additional Info
General
Unique ID                                : 194525255241642542886022011973551843726 (0x9258338F0327EFA58B3A4DB48D34E98E)
Complete name                            : 02. Kino no Tabi - the Beautiful World [Hi10p AAC][kuchikirukia].mkv
Format                                   : Matroska
Format version                           : Version 4 / Version 2
File size                                : 194 MiB
Duration                                 : 21 min 0 s
Overall bit rate                         : 1 293 kb/s
Movie name                               : [KAA] Kino no Tabi ~ the Beautiful World - 03
Encoded date                             : UTC 2015-09-10 08:38:30
Writing application                      : mkvmerge v8.3.0 ('Over the Horizon') 64bit
Writing library                          : libebml v1.3.1 + libmatroska v1.4.2
Attachments                              : LTe52140.ttf / CORBELB.TTF / CORBELI.TTF / CORBELZ.TTF / AJensonPro-SemiboldItSubh.ttf / AJensonPro-SemiboldSubh.ttf / BASKVILL.TTF / CORBEL.TTF

Video
ID                                       : 1
Format                                   : AVC
Format/Info                              : Advanced Video Codec
Format profile                           : High 10@L4
Format settings, CABAC                   : Yes
Format settings, ReFrames                : 16 frames
Codec ID                                 : V_MPEG4/ISO/AVC
Duration                                 : 20 min 59 s
Bit rate                                 : 828 kb/s
Width                                    : 710 pixels
Height                                   : 478 pixels
Display aspect ratio                     : 16:9
Original display aspect ratio            : 16:9
Frame rate mode                          : Constant
Frame rate                               : 23.976 (24000/1001) FPS
Color space                              : YUV
Chroma subsampling                       : 4:2:0
Bit depth                                : 10 bits
Scan type                                : Progressive
Bits/(Pixel*Frame)                       : 0.102
Stream size                              : 124 MiB (64%)
Writing library                          : x264 core 148 r2597kMod e86f3a1
Encoding settings                        : cabac=1 / ref=16 / deblock=1:-1:-1 / analyse=0x3:0x133 / me=umh / subme=10 / psy=1 / fade_compensate=0.00 / psy_rd=0.80:0.00 / mixed_ref=1 / me_range=30 / chroma_me=1 / trellis=2 / 8x8dct=1 / cqm=0 / deadzone=21,11 / fast_pskip=0 / chroma_qp_offset=-2 / threads=8 / lookahead_threads=2 / sliced_threads=0 / nr=0 / decimate=1 / interlaced=0 / bluray_compat=0 / constrained_intra=0 / fgo=0 / bframes=10 / b_pyramid=2 / b_adapt=2 / b_bias=0 / direct=3 / weightb=1 / open_gop=0 / weightp=2 / keyint=288 / keyint_min=23 / scenecut=40 / intra_refresh=0 / rc_lookahead=60 / rc=crf / mbtree=1 / crf=16.0000 / qcomp=0.70 / qpmin=0 / qpmax=81 / qpstep=4 / ip_ratio=1.40 / aq=2:1.00
Default                                  : Yes
Forced                                   : No

Audio #1
ID                                       : 2
Format                                   : AAC
Format/Info                              : Advanced Audio Codec
Format profile                           : LC
Codec ID                                 : A_AAC
Duration                                 : 21 min 0 s
Bit rate                                 : 206 kb/s
Channel(s)                               : 2 channels
Channel positions                        : Front: L R
Sampling rate                            : 48.0 kHz
Frame rate                               : 46.875 FPS (1024 spf)
Compression mode                         : Lossy
Stream size                              : 30.9 MiB (16%)
Language                                 : Japanese
Default                                  : Yes
Forced                                   : No

Audio #2
ID                                       : 3
Format                                   : AAC
Format/Info                              : Advanced Audio Codec
Format profile                           : LC
Codec ID                                 : A_AAC
Duration                                 : 20 min 59 s
Bit rate                                 : 249 kb/s
Channel(s)                               : 6 channels
Channel positions                        : Front: L C R, Side: L R, LFE
Sampling rate                            : 48.0 kHz
Frame rate                               : 46.875 FPS (1024 spf)
Compression mode                         : Lossy
Delay relative to video                  : 7 ms
Stream size                              : 37.3 MiB (19%)
Language                                 : English
Default                                  : No
Forced                                   : No

Text
ID                                       : 4
Format                                   : ASS
Codec ID                                 : S_TEXT/ASS
Codec ID/Info                            : Advanced Sub Station Alpha
Duration                                 : 20 min 52 s
Bit rate                                 : 98 b/s
Count of elements                        : 244
Compression mode                         : Lossless
Stream size                              : 15.1 KiB (0%)
Default                                  : Yes
Forced                                   : No

Menu
00:00:00.000                             : en:Chapter 08
00:09:37.476                             : en:Chapter 09
00:20:59.491                             : en:Chapter 10

Other Files in this Torrent
02. Kino no Tabi - the Beautiful World [Hi10p AAC][kuchikirukia].mkv
beta
Anime DDL+NZB mirror
Current Time: 19/06/2024 19:30



About/FAQs

Discord