File Size237.2 MB (248,696,550 bytes)
DownloadClickNUpload | DiskoKosmiko | Go4Up | Jheberg | MultiUp | OpenLoad | Sendspace | SolidFiles | ZippyShare
HashesCRC32: BBE79582, MD5: D7E76290536CAD5B68CCA686D14BA0D6, SHA1: 772B0CB6994B65AD0C0BF4111CC62DC848E265D1, SHA256: DAC46BAB412F7A8AF30879E43A97A375FBCE936095B2084FDCB73308715AA48C, ED2K: 76B91F315C4C40BB7194E85E73935858
Screenshots
screenshotscreenshotscreenshotscreenshotscreenshot
SubtitlesAll Attachments | und [ASS]
Additional Info
General
Unique ID                                : 240151121113075569379778604439712533512 (0xB4AB6C6CA85A2FD2B294CB804F478C08)
Complete name                            : 03. Kino no Tabi - the Beautiful World [Hi10p AAC][kuchikirukia].mkv
Format                                   : Matroska
Format version                           : Version 4 / Version 2
File size                                : 237 MiB
Duration                                 : 21 min 0 s
Overall bit rate                         : 1 579 kb/s
Movie name                               : [KAA] Kino no Tabi ~ the Beautiful World - 03
Encoded date                             : UTC 2015-09-07 07:30:13
Writing application                      : mkvmerge v8.3.0 ('Over the Horizon') 64bit
Writing library                          : libebml v1.3.1 + libmatroska v1.4.2
Attachments                              : LTe52140.ttf / AJensonPro-SemiboldItSubh.ttf / AJensonPro-SemiboldSubh.ttf / BASKVILL.TTF / CORBEL.TTF / CORBELB.TTF / CORBELI.TTF / CORBELZ.TTF / LTe52140.ttf

Video
ID                                       : 1
Format                                   : AVC
Format/Info                              : Advanced Video Codec
Format profile                           : High 10@L4
Format settings, CABAC                   : Yes
Format settings, ReFrames                : 16 frames
Codec ID                                 : V_MPEG4/ISO/AVC
Duration                                 : 21 min 0 s
Bit rate                                 : 1 085 kb/s
Width                                    : 710 pixels
Height                                   : 478 pixels
Display aspect ratio                     : 16:9
Original display aspect ratio            : 16:9
Frame rate mode                          : Constant
Frame rate                               : 23.976 (24000/1001) FPS
Color space                              : YUV
Chroma subsampling                       : 4:2:0
Bit depth                                : 10 bits
Scan type                                : Progressive
Bits/(Pixel*Frame)                       : 0.133
Stream size                              : 163 MiB (69%)
Writing library                          : x264 core 148 r2597kMod e86f3a1
Encoding settings                        : cabac=1 / ref=16 / deblock=1:-1:-1 / analyse=0x3:0x133 / me=umh / subme=10 / psy=1 / fade_compensate=0.00 / psy_rd=0.80:0.00 / mixed_ref=1 / me_range=30 / chroma_me=1 / trellis=2 / 8x8dct=1 / cqm=0 / deadzone=21,11 / fast_pskip=0 / chroma_qp_offset=-2 / threads=8 / lookahead_threads=2 / sliced_threads=0 / nr=0 / decimate=1 / interlaced=0 / bluray_compat=0 / constrained_intra=0 / fgo=0 / bframes=10 / b_pyramid=2 / b_adapt=2 / b_bias=0 / direct=3 / weightb=1 / open_gop=0 / weightp=2 / keyint=288 / keyint_min=23 / scenecut=40 / intra_refresh=0 / rc_lookahead=60 / rc=crf / mbtree=1 / crf=16.0000 / qcomp=0.70 / qpmin=0 / qpmax=81 / qpstep=4 / ip_ratio=1.40 / aq=2:1.00
Default                                  : Yes
Forced                                   : No

Audio #1
ID                                       : 2
Format                                   : AAC
Format/Info                              : Advanced Audio Codec
Format profile                           : LC
Codec ID                                 : A_AAC
Duration                                 : 21 min 0 s
Bit rate                                 : 219 kb/s
Channel(s)                               : 2 channels
Channel positions                        : Front: L R
Sampling rate                            : 48.0 kHz
Frame rate                               : 46.875 FPS (1024 spf)
Compression mode                         : Lossy
Stream size                              : 32.9 MiB (14%)
Language                                 : Japanese
Default                                  : Yes
Forced                                   : No

Audio #2
ID                                       : 3
Format                                   : AAC
Format/Info                              : Advanced Audio Codec
Format profile                           : LC
Codec ID                                 : A_AAC
Duration                                 : 20 min 59 s
Bit rate                                 : 265 kb/s
Channel(s)                               : 6 channels
Channel positions                        : Front: L C R, Side: L R, LFE
Sampling rate                            : 48.0 kHz
Frame rate                               : 46.875 FPS (1024 spf)
Compression mode                         : Lossy
Delay relative to video                  : 13 ms
Stream size                              : 39.5 MiB (17%)
Language                                 : English
Default                                  : No
Forced                                   : No

Text
ID                                       : 4
Format                                   : ASS
Codec ID                                 : S_TEXT/ASS
Codec ID/Info                            : Advanced Sub Station Alpha
Duration                                 : 20 min 55 s
Bit rate                                 : 156 b/s
Count of elements                        : 354
Compression mode                         : Lossless
Stream size                              : 24.0 KiB (0%)
Default                                  : Yes
Forced                                   : No

Menu
00:00:00.000                             : en:Chapter 13
00:00:39.253                             : en:Chapter 14
00:06:50.087                             : en:Chapter 15
00:11:53.287                             : en:Chapter 16
00:18:44.287                             : en:Chapter 17

Other Files in this Torrent
03. Kino no Tabi - the Beautiful World [Hi10p AAC][kuchikirukia].mkv
beta
Anime DDL+NZB mirror
Current Time: 19/06/2024 19:47



About/FAQs

Discord