File Size213.0 MB (223,386,331 bytes)
DownloadClickNUpload | DiskoKosmiko | Go4Up | Jheberg | MultiUp | OpenLoad | Sendspace | SolidFiles | ZippyShare
HashesCRC32: 3E50AA48, MD5: 12B53B3B523361EB244AE660C01515BB, SHA1: 03B109C0931645EAEB7191F7F5A766C7105EE6F9, SHA256: 302AC98C9ED3DC071945AC3ED67D59E4985CF2209BFF9C5BE435B24D8C5D4D93, ED2K: 459234619BE0F0BCD33CA9FCC736135A
Screenshots
screenshotscreenshotscreenshotscreenshotscreenshot
SubtitlesAll Attachments | und [ASS]
Additional Info
General
Unique ID                                : 196023307254294919077747849651426478118 (0x9378B739AE3E064DABD3860D1220C826)
Complete name                            : 11. Kino no Tabi - the Beautiful World [Hi10p AAC][kuchikirukia].mkv
Format                                   : Matroska
Format version                           : Version 4 / Version 2
File size                                : 213 MiB
Duration                                 : 21 min 0 s
Overall bit rate                         : 1 418 kb/s
Movie name                               : [KAA] Kino no Tabi ~ the Beautiful World - 03
Encoded date                             : UTC 2015-09-10 08:54:13
Writing application                      : mkvmerge v8.3.0 ('Over the Horizon') 64bit
Writing library                          : libebml v1.3.1 + libmatroska v1.4.2
Attachments                              : LTe52140.ttf / AJensonPro-SemiboldItSubh.ttf / AJensonPro-SemiboldSubh.ttf / BASKVILL.TTF / CORBEL.TTF / CORBELB.TTF / CORBELI.TTF / CORBELZ.TTF

Video
ID                                       : 1
Format                                   : AVC
Format/Info                              : Advanced Video Codec
Format profile                           : High 10@L4
Format settings, CABAC                   : Yes
Format settings, ReFrames                : 16 frames
Codec ID                                 : V_MPEG4/ISO/AVC
Duration                                 : 20 min 59 s
Bit rate                                 : 938 kb/s
Width                                    : 710 pixels
Height                                   : 478 pixels
Display aspect ratio                     : 16:9
Original display aspect ratio            : 16:9
Frame rate mode                          : Constant
Frame rate                               : 23.976 (24000/1001) FPS
Color space                              : YUV
Chroma subsampling                       : 4:2:0
Bit depth                                : 10 bits
Scan type                                : Progressive
Bits/(Pixel*Frame)                       : 0.115
Stream size                              : 141 MiB (66%)
Writing library                          : x264 core 148 r2597kMod e86f3a1
Encoding settings                        : cabac=1 / ref=16 / deblock=1:-1:-1 / analyse=0x3:0x133 / me=umh / subme=10 / psy=1 / fade_compensate=0.00 / psy_rd=0.80:0.00 / mixed_ref=1 / me_range=30 / chroma_me=1 / trellis=2 / 8x8dct=1 / cqm=0 / deadzone=21,11 / fast_pskip=0 / chroma_qp_offset=-2 / threads=8 / lookahead_threads=2 / sliced_threads=0 / nr=0 / decimate=1 / interlaced=0 / bluray_compat=0 / constrained_intra=0 / fgo=0 / bframes=10 / b_pyramid=2 / b_adapt=2 / b_bias=0 / direct=3 / weightb=1 / open_gop=0 / weightp=2 / keyint=288 / keyint_min=23 / scenecut=40 / intra_refresh=0 / rc_lookahead=60 / rc=crf / mbtree=1 / crf=16.0000 / qcomp=0.70 / qpmin=0 / qpmax=81 / qpstep=4 / ip_ratio=1.40 / aq=2:1.00
Default                                  : Yes
Forced                                   : No

Audio #1
ID                                       : 2
Format                                   : AAC
Format/Info                              : Advanced Audio Codec
Format profile                           : LC
Codec ID                                 : A_AAC
Duration                                 : 21 min 0 s
Bit rate                                 : 204 kb/s
Channel(s)                               : 2 channels
Channel positions                        : Front: L R
Sampling rate                            : 48.0 kHz
Frame rate                               : 46.875 FPS (1024 spf)
Compression mode                         : Lossy
Stream size                              : 30.7 MiB (14%)
Language                                 : Japanese
Default                                  : Yes
Forced                                   : No

Audio #2
ID                                       : 3
Format                                   : AAC
Format/Info                              : Advanced Audio Codec
Format profile                           : LC
Codec ID                                 : A_AAC
Duration                                 : 20 min 59 s
Bit rate                                 : 265 kb/s
Channel(s)                               : 6 channels
Channel positions                        : Front: L C R, Side: L R, LFE
Sampling rate                            : 48.0 kHz
Frame rate                               : 46.875 FPS (1024 spf)
Compression mode                         : Lossy
Delay relative to video                  : 13 ms
Stream size                              : 39.8 MiB (19%)
Language                                 : English
Default                                  : No
Forced                                   : No

Text
ID                                       : 4
Format                                   : ASS
Codec ID                                 : S_TEXT/ASS
Codec ID/Info                            : Advanced Sub Station Alpha
Duration                                 : 20 min 45 s
Bit rate                                 : 138 b/s
Count of elements                        : 345
Compression mode                         : Lossless
Stream size                              : 21.1 KiB (0%)
Default                                  : Yes
Forced                                   : No

Menu
00:00:00.000                             : en:Chapter 7
00:00:26.059                             : en:Chapter 8
00:04:34.692                             : en:Chapter 9
00:05:10.526                             : en:Chapter 10
00:08:56.526                             : en:Chapter 11
00:09:32.459                             : en:Chapter 12
00:20:21.926                             : en:Chapter 13

Other Files in this Torrent
11. Kino no Tabi - the Beautiful World [Hi10p AAC][kuchikirukia].mkv
beta
Anime DDL+NZB mirror
Current Time: 19/06/2024 21:02



About/FAQs

Discord