7. Owarimonogatari - End Story/[NoobSubs] Owarimonogatari NCED02 (1080p Blu-ray 8bit AAC).mp4


File Size71.46 MB (74,935,530 bytes)
DownloadGo4Up | Jheberg | MultiUp
  • ClickNupload
  • Fichier
  • Filerio
  • Free
  • Fufox
  • HugeFiles
  • Mightyupload
  • ToutBox
  • Turbobit
  • UpToBox
  • Uplea
  • UploadBaz
  • Uploadable
  • Uploaded
  • Uppit
  • Userscloud
  • ZippyShare
| OpenLoad | Sendspace | SolidFiles | UsersCloud
HashesCRC32: B86976ED, MD5: 424DE1C74D22CA27CAD55CBAD4A720FF, SHA1: 953EB396CA249C74C5A8E99DBA82A72E0504F0F6, SHA256: E3C89703F6F517550020512F1D69A97327ECE5F2B152AD0C096AA1BB1D4539B3, ED2K: 8A6129C3C79C3E1ADD3208361EE11CB9
Screenshots
screenshotscreenshot
Additional Info
General
Complete name                            : [NoobSubs] Owarimonogatari NCED02 (1080p Blu-ray 8bit AAC).mp4
Format                                   : MPEG-4
Format profile                           : Base Media
Codec ID                                 : isom (isom/avc1)
File size                                : 71.5 MiB
Duration                                 : 1mn 30s
Overall bit rate mode                    : Variable
Overall bit rate                         : 6 657 Kbps
Movie name                               : [NoobSubs] Owarimonogatari NCED02 (1080p Blu-ray 8bit AAC)
Album                                    : Owarimonogatari - End Story
Track name/Position                      : 2
Track name/Total                         : 2
Performer                                : Subs: [Commie] - [Coalgirls]
Encoded date                             : UTC 2016-07-31 04:03:56
Tagged date                              : UTC 2016-07-31 04:25:13
replaygain_track_gain                    : +0.65 dB
replaygain_track_minmax                  : 91,180
replaygain_track_peak                    : 0.550000
replaygain_undo                          : -3,-3

Video
ID                                       : 1
Format                                   : AVC
Format/Info                              : Advanced Video Codec
Format profile                           : High@L4
Format settings, CABAC                   : Yes
Format settings, ReFrames                : 4 frames
Codec ID                                 : avc1
Codec ID/Info                            : Advanced Video Coding
Duration                                 : 1mn 30s
Bit rate                                 : 6 351 Kbps
Maximum bit rate                         : 13.3 Mbps
Width                                    : 1 920 pixels
Height                                   : 1 080 pixels
Display aspect ratio                     : 16:9
Frame rate mode                          : Constant
Frame rate                               : 23.976 (24000/1001) fps
Color space                              : YUV
Chroma subsampling                       : 4:2:0
Bit depth                                : 8 bits
Scan type                                : Progressive
Bits/(Pixel*Frame)                       : 0.128
Stream size                              : 68.2 MiB (95%)
Title                                    : 264@GPAC0.6.2-DEV-rev142-g9a9a995-master
Writing library                          : x264 core 148 r2665 a01e339
Encoding settings                        : cabac=1 / ref=4 / deblock=1:0:0 / analyse=0x3:0x133 / me=umh / subme=10 / psy=1 / psy_rd=1.00:0.00 / mixed_ref=1 / me_range=24 / chroma_me=1 / trellis=2 / 8x8dct=1 / cqm=0 / deadzone=21,11 / fast_pskip=1 / chroma_qp_offset=-2 / threads=12 / lookahead_threads=2 / sliced_threads=0 / nr=0 / decimate=1 / interlaced=0 / bluray_compat=0 / constrained_intra=0 / bframes=7 / b_pyramid=2 / b_adapt=2 / b_bias=0 / direct=3 / weightb=1 / open_gop=0 / weightp=2 / keyint=250 / keyint_min=23 / scenecut=40 / intra_refresh=0 / rc_lookahead=60 / rc=crf / mbtree=1 / crf=17.3 / qcomp=0.60 / qpmin=0 / qpmax=69 / qpstep=4 / ip_ratio=1.40 / aq=1:1.30
Encoded date                             : UTC 2016-07-31 04:03:56
Tagged date                              : UTC 2016-07-31 04:03:57

Audio
ID                                       : 2
Format                                   : AAC
Format/Info                              : Advanced Audio Codec
Format profile                           : LC
Codec ID                                 : 40
Duration                                 : 1mn 30s
Bit rate mode                            : Variable
Bit rate                                 : 302 Kbps
Maximum bit rate                         : 322 Kbps
Channel(s)                               : 2 channels
Channel positions                        : Front: L R
Sampling rate                            : 48.0 KHz
Frame rate                               : 46.875 fps (1024 spf)
Compression mode                         : Lossy
Stream size                              : 3.24 MiB (5%)
Encoded date                             : UTC 2016-07-31 04:03:53
Tagged date                              : UTC 2016-07-31 04:03:57

Other Files in this Torrent
7. Owarimonogatari - End Story/[NoobSubs] Owarimonogatari NCED02 (1080p Blu-ray 8bit AAC).mp4
beta
Anime DDL+NZB mirror
Current Time: 22/05/2024 04:34



About/FAQs

Discord