7. Owarimonogatari - End Story/[NoobSubs] Owarimonogatari NCED01 (1080p Blu-ray 8bit AAC).mp4


File Size60.88 MB (63,835,191 bytes)
DownloadGo4Up | Jheberg | MultiUp
  • ClickNupload
  • Fichier
  • Filerio
  • Free
  • Fufox
  • HugeFiles
  • Mightyupload
  • ToutBox
  • Turbobit
  • UpToBox
  • Uplea
  • UploadBaz
  • Uploadable
  • Uploaded
  • Uppit
  • Userscloud
  • ZippyShare
| OpenLoad | Sendspace | SolidFiles | UsersCloud
HashesCRC32: 6CD354A0, MD5: 37D680C3BC4D84184C6E240B45D16FA7, SHA1: 5C5C49AFAE4722A875DA04B32A6513DC8BBC14A2, SHA256: D63C2EE1C4D5B578DD01AE3D6900B2077F02B1193F2E4F87DD6840C03D3DB29F, ED2K: 99D73876CA3DFA909AB7C08E5FD7266F
Screenshots
screenshotscreenshot
Additional Info
General
Complete name                            : [NoobSubs] Owarimonogatari NCED01 (1080p Blu-ray 8bit AAC).mp4
Format                                   : MPEG-4
Format profile                           : Base Media
Codec ID                                 : isom (isom/avc1)
File size                                : 60.9 MiB
Duration                                 : 1mn 30s
Overall bit rate mode                    : Variable
Overall bit rate                         : 5 671 Kbps
Movie name                               : [NoobSubs] Owarimonogatari NCED01 (1080p Blu-ray 8bit AAC)
Album                                    : Owarimonogatari - End Story
Track name/Position                      : 1
Track name/Total                         : 2
Performer                                : Subs: [Commie] - [Coalgirls]
Encoded date                             : UTC 2016-07-31 03:58:17
Tagged date                              : UTC 2016-07-31 04:25:07
replaygain_track_gain                    : +0.33 dB
replaygain_track_minmax                  : 91,175
replaygain_track_peak                    : 0.550000
replaygain_undo                          : -3,-3

Video
ID                                       : 1
Format                                   : AVC
Format/Info                              : Advanced Video Codec
Format profile                           : High@L4
Format settings, CABAC                   : Yes
Format settings, ReFrames                : 4 frames
Codec ID                                 : avc1
Codec ID/Info                            : Advanced Video Coding
Duration                                 : 1mn 30s
Bit rate                                 : 5 365 Kbps
Maximum bit rate                         : 10.7 Mbps
Width                                    : 1 920 pixels
Height                                   : 1 080 pixels
Display aspect ratio                     : 16:9
Frame rate mode                          : Constant
Frame rate                               : 23.976 (24000/1001) fps
Color space                              : YUV
Chroma subsampling                       : 4:2:0
Bit depth                                : 8 bits
Scan type                                : Progressive
Bits/(Pixel*Frame)                       : 0.108
Stream size                              : 57.6 MiB (95%)
Title                                    : 264@GPAC0.6.2-DEV-rev142-g9a9a995-master
Writing library                          : x264 core 148 r2665 a01e339
Encoding settings                        : cabac=1 / ref=4 / deblock=1:0:0 / analyse=0x3:0x133 / me=umh / subme=10 / psy=1 / psy_rd=1.00:0.00 / mixed_ref=1 / me_range=24 / chroma_me=1 / trellis=2 / 8x8dct=1 / cqm=0 / deadzone=21,11 / fast_pskip=1 / chroma_qp_offset=-2 / threads=12 / lookahead_threads=2 / sliced_threads=0 / nr=0 / decimate=1 / interlaced=0 / bluray_compat=0 / constrained_intra=0 / bframes=7 / b_pyramid=2 / b_adapt=2 / b_bias=0 / direct=3 / weightb=1 / open_gop=0 / weightp=2 / keyint=250 / keyint_min=23 / scenecut=40 / intra_refresh=0 / rc_lookahead=60 / rc=crf / mbtree=1 / crf=17.3 / qcomp=0.60 / qpmin=0 / qpmax=69 / qpstep=4 / ip_ratio=1.40 / aq=1:1.30
Encoded date                             : UTC 2016-07-31 03:58:17
Tagged date                              : UTC 2016-07-31 03:58:18

Audio
ID                                       : 2
Format                                   : AAC
Format/Info                              : Advanced Audio Codec
Format profile                           : LC
Codec ID                                 : 40
Duration                                 : 1mn 30s
Bit rate mode                            : Variable
Bit rate                                 : 302 Kbps
Maximum bit rate                         : 322 Kbps
Channel(s)                               : 2 channels
Channel positions                        : Front: L R
Sampling rate                            : 48.0 KHz
Frame rate                               : 46.875 fps (1024 spf)
Compression mode                         : Lossy
Stream size                              : 3.24 MiB (5%)
Encoded date                             : UTC 2016-07-31 03:58:14
Tagged date                              : UTC 2016-07-31 03:58:18

Other Files in this Torrent
7. Owarimonogatari - End Story/[NoobSubs] Owarimonogatari NCED01 (1080p Blu-ray 8bit AAC).mp4
beta
Anime DDL+NZB mirror
Current Time: 28/05/2024 14:03



About/FAQs

Discord