7. Owarimonogatari - End Story/[NoobSubs] Owarimonogatari 04 (1080p Blu-ray 8bit AAC).mp4


File Size639.2 MB (670,233,818 bytes)
DownloadGo4Up | Jheberg | MultiUp | OpenLoad | UsersCloud
Sendspace: Part1, Part2, Part3
SolidFiles: Part1, Part2
HashesCRC32: D7CD71CF, MD5: 2FEE62C6E14515697A1FF02F3EF3CF23, SHA1: 6360D8E77C38F2C3E19E39E5488CA77C6132BD7F, SHA256: AB642379639A1FC66B9F438DB118F350EC6684A172C0AB5C032C7125D3424B4E, ED2K: B1026BCEA4B5E1626C60209FB1BF9C83
Screenshots
screenshotscreenshotscreenshotscreenshotscreenshot
Additional Info
General
Complete name                            : [NoobSubs] Owarimonogatari 04 (1080p Blu-ray 8bit AAC).mp4
Format                                   : MPEG-4
Format profile                           : Base Media
Codec ID                                 : isom (isom/avc1)
File size                                : 639 MiB
Duration                                 : 24mn 11s
Overall bit rate mode                    : Variable
Overall bit rate                         : 3 695 Kbps
Movie name                               : [NoobSubs] Owarimonogatari 04 (1080p Blu-ray 8bit AAC)
Album                                    : Owarimonogatari - End Story
Track name/Position                      : 4
Track name/Total                         : 13
Performer                                : Subs: [Commie] - [Coalgirls]
Encoded date                             : UTC 2016-07-31 02:52:05
Tagged date                              : UTC 2016-07-31 03:29:44
replaygain_track_gain                    : +1.44 dB
replaygain_track_minmax                  : 90,176
replaygain_track_peak                    : 0.720000
replaygain_undo                          : -2,-2

Video
ID                                       : 1
Format                                   : AVC
Format/Info                              : Advanced Video Codec
Format profile                           : High@L4
Format settings, CABAC                   : Yes
Format settings, ReFrames                : 4 frames
Codec ID                                 : avc1
Codec ID/Info                            : Advanced Video Coding
Duration                                 : 24mn 10s
Bit rate                                 : 3 393 Kbps
Maximum bit rate                         : 29.7 Mbps
Width                                    : 1 920 pixels
Height                                   : 1 080 pixels
Display aspect ratio                     : 16:9
Frame rate mode                          : Constant
Frame rate                               : 23.976 (24000/1001) fps
Color space                              : YUV
Chroma subsampling                       : 4:2:0
Bit depth                                : 8 bits
Scan type                                : Progressive
Bits/(Pixel*Frame)                       : 0.068
Stream size                              : 587 MiB (92%)
Title                                    : h264@GPAC0.6.2-DEV-rev142-g9a9a995-master
Writing library                          : x264 core 148 r2665 a01e339
Encoding settings                        : cabac=1 / ref=4 / deblock=1:0:0 / analyse=0x3:0x133 / me=umh / subme=10 / psy=1 / psy_rd=1.00:0.00 / mixed_ref=1 / me_range=24 / chroma_me=1 / trellis=2 / 8x8dct=1 / cqm=0 / deadzone=21,11 / fast_pskip=1 / chroma_qp_offset=-2 / threads=12 / lookahead_threads=2 / sliced_threads=0 / nr=0 / decimate=1 / interlaced=0 / bluray_compat=0 / constrained_intra=0 / bframes=7 / b_pyramid=2 / b_adapt=2 / b_bias=0 / direct=3 / weightb=1 / open_gop=0 / weightp=2 / keyint=250 / keyint_min=23 / scenecut=40 / intra_refresh=0 / rc_lookahead=60 / rc=crf / mbtree=1 / crf=17.3 / qcomp=0.60 / qpmin=0 / qpmax=69 / qpstep=4 / ip_ratio=1.40 / aq=1:1.30
Encoded date                             : UTC 2016-07-31 02:52:05
Tagged date                              : UTC 2016-07-31 02:52:20

Audio
ID                                       : 2
Format                                   : AAC
Format/Info                              : Advanced Audio Codec
Format profile                           : LC
Codec ID                                 : 40
Duration                                 : 24mn 11s
Bit rate mode                            : Variable
Bit rate                                 : 298 Kbps
Maximum bit rate                         : 344 Kbps
Channel(s)                               : 2 channels
Channel positions                        : Front: L R
Sampling rate                            : 48.0 KHz
Frame rate                               : 46.875 fps (1024 spf)
Compression mode                         : Lossy
Stream size                              : 51.6 MiB (8%)
Encoded date                             : UTC 2016-07-31 02:17:34
Tagged date                              : UTC 2016-07-31 02:52:20

Other Files in this Torrent
7. Owarimonogatari - End Story/[NoobSubs] Owarimonogatari 04 (1080p Blu-ray 8bit AAC).mp4
beta
Anime DDL+NZB mirror
Current Time: 22/05/2024 06:03



About/FAQs

Discord