7. Owarimonogatari - End Story/[NoobSubs] Owarimonogatari 01 (1080p Blu-ray 8bit AAC).mp4


File Size716.9 MB (751,766,324 bytes)
DownloadGo4Up | Jheberg | MultiUp | OpenLoad | UsersCloud
Sendspace: Part1, Part2, Part3
SolidFiles: Part1, Part2
HashesCRC32: 597677C2, MD5: B9D76477BAD2EE989EEF261761717364, SHA1: C21241996676079F2C9DD1A752A5AECC0BD2371A, SHA256: E5DF7E6E2AABB4F87022BB42B0B4F5C8995DB6E4CD16F71E73F6B00F9D416F99, ED2K: 3C23AC8E9467BF1EEB560BAF76E84323
Screenshots
screenshotscreenshotscreenshotscreenshotscreenshot
Additional Info
General
Complete name                            : [NoobSubs] Owarimonogatari 01 (1080p Blu-ray 8bit AAC).mp4
Format                                   : MPEG-4
Format profile                           : Base Media
Codec ID                                 : isom (isom/avc1)
File size                                : 717 MiB
Duration                                 : 27mn 10s
Overall bit rate mode                    : Variable
Overall bit rate                         : 3 690 Kbps
Movie name                               : [NoobSubs] Owarimonogatari 01 (1080p Blu-ray 8bit AAC)
Album                                    : Owarimonogatari - End Story
Track name/Position                      : 1
Track name/Total                         : 13
Performer                                : Subs: [Commie] - [Coalgirls]
Encoded date                             : UTC 2016-07-31 02:50:07
Tagged date                              : UTC 2016-07-31 03:26:41
replaygain_track_gain                    : +1.27 dB
replaygain_track_minmax                  : 89,182
replaygain_track_peak                    : 0.750000
replaygain_undo                          : -2,-2

Video
ID                                       : 1
Format                                   : AVC
Format/Info                              : Advanced Video Codec
Format profile                           : High@L4
Format settings, CABAC                   : Yes
Format settings, ReFrames                : 4 frames
Codec ID                                 : avc1
Codec ID/Info                            : Advanced Video Coding
Duration                                 : 27mn 9s
Bit rate                                 : 3 395 Kbps
Maximum bit rate                         : 32.7 Mbps
Width                                    : 1 920 pixels
Height                                   : 1 080 pixels
Display aspect ratio                     : 16:9
Frame rate mode                          : Constant
Frame rate                               : 23.976 (24000/1001) fps
Color space                              : YUV
Chroma subsampling                       : 4:2:0
Bit depth                                : 8 bits
Scan type                                : Progressive
Bits/(Pixel*Frame)                       : 0.068
Stream size                              : 660 MiB (92%)
Title                                    : h264@GPAC0.6.2-DEV-rev142-g9a9a995-master
Writing library                          : x264 core 148 r2665 a01e339
Encoding settings                        : cabac=1 / ref=4 / deblock=1:0:0 / analyse=0x3:0x133 / me=umh / subme=10 / psy=1 / psy_rd=1.00:0.00 / mixed_ref=1 / me_range=24 / chroma_me=1 / trellis=2 / 8x8dct=1 / cqm=0 / deadzone=21,11 / fast_pskip=1 / chroma_qp_offset=-2 / threads=12 / lookahead_threads=2 / sliced_threads=0 / nr=0 / decimate=1 / interlaced=0 / bluray_compat=0 / constrained_intra=0 / bframes=7 / b_pyramid=2 / b_adapt=2 / b_bias=0 / direct=3 / weightb=1 / open_gop=0 / weightp=2 / keyint=250 / keyint_min=23 / scenecut=40 / intra_refresh=0 / rc_lookahead=60 / rc=crf / mbtree=1 / crf=17.3 / qcomp=0.60 / qpmin=0 / qpmax=69 / qpstep=4 / ip_ratio=1.40 / aq=1:1.30
Encoded date                             : UTC 2016-07-31 02:50:07
Tagged date                              : UTC 2016-07-31 02:50:13

Audio
ID                                       : 2
Format                                   : AAC
Format/Info                              : Advanced Audio Codec
Format profile                           : LC
Codec ID                                 : 40
Duration                                 : 27mn 10s
Bit rate mode                            : Variable
Bit rate                                 : 288 Kbps
Maximum bit rate                         : 341 Kbps
Channel(s)                               : 2 channels
Channel positions                        : Front: L R
Sampling rate                            : 48.0 KHz
Frame rate                               : 46.875 fps (1024 spf)
Compression mode                         : Lossy
Stream size                              : 56.5 MiB (8%)
Encoded date                             : UTC 2016-07-31 02:15:30
Tagged date                              : UTC 2016-07-31 02:50:13

Other Files in this Torrent
7. Owarimonogatari - End Story/[NoobSubs] Owarimonogatari 01 (1080p Blu-ray 8bit AAC).mp4
beta
Anime DDL+NZB mirror
Current Time: 30/05/2024 13:08



About/FAQs

Discord